Вход на сайт

Имя:
Пароль:

· Забыли пароль?
logo
Портал Форум
Регистрация Вход


new_topic  reply_topic

  (Euro House) Various Artists - The Best Of DJ Hits' 99 Volume II, APE (image + .cue)

pic
Год выпуска: 1999
Страна: E.U
Жанр: Euro House
Номер #: BMG 7243 8 23144 2 4
Продолжительность: CD 1 70:57 CD 2 70:04

Тип издания: сборник
Аудио кодек: APE
Тип рипа: (image + .cue)
Битрейт аудио: lossless

Треклист:

CD 1

01. E-Type - Princess Of Egypt
02. London Beat - I' ve Been Thinking About You
03. Ultimate Kaos - Anything You Want
04. Fancy - Slice Me Nice
05. Bambee - Bam Bam Bam
06. Maxfield - The Moment
07. Speed Limit - Cry For You' r Love
08. Scooter - We Are The Greatest
09. Present - Fiesta
10. S. J. - Shiver
11. Hand' s Of Belli - Cos You Real
12. Newton - All Out Of Love
13. 2 Alive - Tell It To My Heart
14. Infinity - Come On And Dance
15. Music Instructor Feat. ABE - Get Freaky
16. Steps Feat. Bee Gees - Tragedy
17. Dr. Bombay - Holabaloo

CD 2

01. Code K. – Sacrifice
02. NY City Beets Scream Factory – Mami Blue
03. Newtronic – Let' s Dance
04. BVSMP – 98' er Megamix
05. Modern Talking – No. 1 HitMedley' 98 ( Short Edit )
06. Lian Ross – Fantasy' 98
07. Quicksilver – Strees Sales
08. Corona – Magic Touch
09. Silent Circle – Touch In The Night' 98
10. Dune Feat. Vanessa – Keep The Secret
11. KB Caps – Do You Really Need Me' 98
12. Pandora – Shout It Out
13. GrooveMaster – Rock Ya Booty ( Don' t Stop )
14. Sqeezer – Street Jam
15. George Michael Feat. Rap All Star' s – Last Cristmas
16. Touche Feat. Dieter Bolen – Y. M. C. A. ( Vocal Version )
17. Sugar Ray – Abracadabra
18. Secret Service – Flash In The Night ( Antiloop Reconst. Mix )

Код:

Exact Audio Copy V0.99 prebeta 5 from 4. May 2009

Exact Audio Copy V0.99 prebeta 5 from 4. May 2009

Отчёт EAC об извлечении, выполненном 19. октября 2012, 9:09

Various  Artists / The  Best  Of  DJ  Hits' 99  Volume  II  CD 1

Дисковод: Optiarc DVD RW AD-7263S   Adapter: 5  ID: 0

Режим чтения                 : Достоверность
Использование точного потока : Да
Отключение кэша аудио        : Да
Использование указателей C2  : Нет

Коррекция смещения при чтении                     : 48
Способность читать области Lead-in и Lead-out     : Нет
Заполнение пропущенных сэмплов тишиной            : Да
Удаление блоков с тишиной в начале и конце        : Нет
При вычислениях CRC использовались нулевые сэмплы : Да
Интерфейс                                         : Встроенный Win32-интерфейс для Win NT/2000

Выходной формат          : Monkey's Audio (без потерь)
Выбранный битрейт        : Extra High Lossless Compression
Качество                 : Высокий
Добавление ID3-тэга      : Нет
Утилита сжатия           : C:\Program Files (x86)\Monkey's Audio\MAC.exe
Дополнительные параметры : -w "Artist=%a" -w "Title=%t" -w "Album=%g" -w "Year=%y" -w "Track=%n" -w "Genre=%m" -h %s %d

TOC извлечённого CD

     Трек |   Старт  | Длительность | Начальный сектор | Конечный сектор
    ---------------------------------------------------------------------
       1  |  0:00.00 |    3:39.42   |           0      |      16466     
       2  |  3:39.42 |    3:42.13   |       16467      |      33129     
       3  |  7:21.55 |    3:08.29   |       33130      |      47258     
       4  | 10:30.09 |    3:54.66   |       47259      |      64874     
       5  | 14:25.00 |    3:08.56   |       64875      |      79030     
       6  | 17:33.56 |    5:43.37   |       79031      |     104792     
       7  | 23:17.18 |    3:44.62   |      104793      |     121654     
       8  | 27:02.05 |    3:27.73   |      121655      |     137252     
       9  | 30:30.03 |    3:59.68   |      137253      |     155245     
      10  | 34:29.71 |    5:33.18   |      155246      |     180238     
      11  | 40:03.14 |    4:23.74   |      180239      |     200037     
      12  | 44:27.13 |    6:17.19   |      200038      |     228331     
      13  | 50:44.32 |    3:36.17   |      228332      |     244548     
      14  | 54:20.49 |    4:13.23   |      244549      |     263546     
      15  | 58:33.72 |    4:50.65   |      263547      |     285361     
      16  | 63:24.62 |    4:30.30   |      285362      |     305641     
      17  | 67:55.17 |    3:02.14   |      305642      |     319305     

Характеристики диапазона извлечения и сообщения об ошибках

Выбранный диапазон

     Имя файла D:\Bit Torrent\DJ  Hits\Various  Artists - The  Best  Of  DJ  Hits' 99  Volume  2  CD 1\Covers\Various  Artists - The  Best  Of  DJ  Hits' 99  Volume  II  CD 1.wav

     Пиковый уровень 100.0 %
     Качество диапазона 99.9 %
     CRC теста 0E93F847
     CRC копии 0E93F847
     Копирование... OK

Ошибок не произошло

 
AccurateRip: сводка
 
Трек  1  нет в базе данных
Трек  2  нет в базе данных
Трек  3  нет в базе данных
Трек  4  нет в базе данных
Трек  5  нет в базе данных
Трек  6  нет в базе данных
Трек  7  нет в базе данных
Трек  8  нет в базе данных
Трек  9  нет в базе данных
Трек 10  нет в базе данных
Трек 11  нет в базе данных
Трек 12  нет в базе данных
Трек 13  нет в базе данных
Трек 14  нет в базе данных
Трек 15  нет в базе данных
Трек 16  нет в базе данных
Трек 17  нет в базе данных
 
Ни одного трека нет в базе AccurateRip

Конец отчёта

Код:

Exact Audio Copy V0.99 prebeta 5 from 4. May 2009

Отчёт EAC об извлечении, выполненном 19. октября 2012, 8:32

Various  Artists / The  Best  Of  DJ  Hits' 99  Volume  II  CD 2

Дисковод: Optiarc DVD RW AD-7263S   Adapter: 5  ID: 0

Режим чтения                 : Достоверность
Использование точного потока : Да
Отключение кэша аудио        : Да
Использование указателей C2  : Нет

Коррекция смещения при чтении                     : 48
Способность читать области Lead-in и Lead-out     : Нет
Заполнение пропущенных сэмплов тишиной            : Да
Удаление блоков с тишиной в начале и конце        : Нет
При вычислениях CRC использовались нулевые сэмплы : Да
Интерфейс                                         : Встроенный Win32-интерфейс для Win NT/2000

Выходной формат          : Monkey's Audio (без потерь)
Выбранный битрейт        : Extra High Lossless Compression
Качество                 : Высокий
Добавление ID3-тэга      : Нет
Утилита сжатия           : C:\Program Files (x86)\Monkey's Audio\MAC.exe
Дополнительные параметры : -w "Artist=%a" -w "Title=%t" -w "Album=%g" -w "Year=%y" -w "Track=%n" -w "Genre=%m" -h %s %d

TOC извлечённого CD

     Трек |   Старт  | Длительность | Начальный сектор | Конечный сектор
    ---------------------------------------------------------------------
       1  |  0:00.00 |    3:53.07   |           0      |      17481     
       2  |  3:53.07 |    3:53.57   |       17482      |      35013     
       3  |  7:46.64 |    3:58.47   |       35014      |      52910     
       4  | 11:45.36 |    5:00.48   |       52911      |      75458     
       5  | 16:46.09 |    5:32.68   |       75459      |     100426     
       6  | 22:19.02 |    3:39.30   |      100427      |     116881     
       7  | 25:58.32 |    3:35.09   |      116882      |     133015     
       8  | 29:33.41 |    3:55.49   |      133016      |     150689     
       9  | 33:29.15 |    3:50.50   |      150690      |     167989     
      10  | 37:19.65 |    3:25.14   |      167990      |     183378     
      11  | 40:45.04 |    3:36.03   |      183379      |     199581     
      12  | 44:21.07 |    3:17.38   |      199582      |     214394     
      13  | 47:38.45 |    3:47.17   |      214395      |     231436     
      14  | 51:25.62 |    4:14.42   |      231437      |     250528     
      15  | 55:40.29 |    3:51.59   |      250529      |     267912     
      16  | 59:32.13 |    3:10.45   |      267913      |     282207     
      17  | 62:42.58 |    3:44.09   |      282208      |     299016     
      18  | 66:26.67 |    3:37.17   |      299017      |     315308     

Характеристики диапазона извлечения и сообщения об ошибках

Выбранный диапазон

     Имя файла D:\Bit Torrent\DJ  Hits\Various  Artists - The  Best  Of  DJ  Hits' 99  Volume  2  CD 2\Various  Artists - The  Best  Of  DJ  Hits' 99  Volume  II  CD 2.wav

     Пиковый уровень 100.0 %
     Качество диапазона 100.0 %
     CRC теста AC21224F
     CRC копии AC21224F
     Копирование... OK

Ошибок не произошло

 
AccurateRip: сводка
 
Трек  1  нет в базе данных
Трек  2  нет в базе данных
Трек  3  нет в базе данных
Трек  4  нет в базе данных
Трек  5  нет в базе данных
Трек  6  нет в базе данных
Трек  7  нет в базе данных
Трек  8  нет в базе данных
Трек  9  нет в базе данных
Трек 10  нет в базе данных
Трек 11  нет в базе данных
Трек 12  нет в базе данных
Трек 13  нет в базе данных
Трек 14  нет в базе данных
Трек 15  нет в базе данных
Трек 16  нет в базе данных
Трек 17  нет в базе данных
Трек 18  нет в базе данных
 
Ни одного трека нет в базе AccurateRip

Конец отчёта
Данный диск сделан почти полностью из МП3. Раздачу оформил просто из-за того что такой сборник был в своё время.

Цитата:

APE (image + .cue)
shutov12 допиши в шапке и укажи в шаблоне лейбл, который издавал данный сборник
Alex2GB
Вроде исправил.

Цитата:

Номер #: BMG 7243 8 23144 2 4 (лейбл)
Alex2GB
Не поверишь, BMG. Только эти три буквы. BMG 7243 8 23144 2 4

Страница 1 из 1

new_topic  reply_topic

Текущее время: 25-Янв 12:31
Часовой пояс: GMT + 4

m Сделано с любовью PR-CY.ru Каталог webplus.info