Вход на сайт

Имя:
Пароль:

· Забыли пароль?
logo
Портал Форум
Регистрация Вход


new_topic  reply_topic

  (Euro House) Various Artists - DJ Hits Volume 5 ( Super Dance Music ) 1999, APE (image + .cue)

pic
Год выпуска: 1999
Производитель: Россия
Жанр: Euro House
Номер #: 942.358-2 RMG 1115-2 (RMG Records, ToCo International)
Продолжительность: 58:42

Тип издания: сборник
Аудио кодек: APE
Тип рипа: (image + .cue)
Битрейт аудио: lossless

Треклист:

01. X-Session - Say Yeah
02. Pandera - Fifthy Colour Man ( Radio Mix )
03. Zapata - Hay ! Morena
04. Dr. Alban - Fly Eagle' s
05. Hollis P. Monroe - I' m Lonely ( P. J. ' s Mix )
06. Paradox Feat. Devorah - 1999 ( Radio Version )
07. Natural Born DeeJays - Oxygene ( Vacuum Radio Mix )
08. Tracy Shaw - Ridin' High ( Radio Edit )
09. Popcorn Feat. Jade - Manic Monday
10. Dana International - Woman In Love ( C & N Radio Edit )
11. Touch Of Joy - Feel All Night
12. Eddie Amador - House Music
13. Fernando Seixas - Morena
14. Sushi - Let It Swing
15. Silk - You And Me ( DJ Mix )

Код:

Exact Audio Copy V0.99 prebeta 5 from 4. May 2009

Отчёт EAC об извлечении, выполненном 18. октября 2012, 20:05

Various  Artists / DJ  Hits  Volume  5  ( Super  Dance  Musik )

Дисковод: PIONEER DVD-RW  DVR-110D   Adapter: 0  ID: 0

Режим чтения                 : Достоверность
Использование точного потока : Да
Отключение кэша аудио        : Да
Использование указателей C2  : Нет

Коррекция смещения при чтении                     : 48
Способность читать области Lead-in и Lead-out     : Нет
Заполнение пропущенных сэмплов тишиной            : Да
Удаление блоков с тишиной в начале и конце        : Нет
При вычислениях CRC использовались нулевые сэмплы : Да
Интерфейс                                         : Встроенный Win32-интерфейс для Win NT/2000

Выходной формат          : Monkey's Audio (без потерь)
Выбранный битрейт        : Extra High Lossless Compression
Качество                 : Высокий
Добавление ID3-тэга      : Нет
Утилита сжатия           : C:\Program Files (x86)\Monkey's Audio\MAC.exe
Дополнительные параметры : -w "Artist=%a" -w "Title=%t" -w "Album=%g" -w "Year=%y" -w "Track=%n" -w "Genre=%m" -h %s %d

TOC извлечённого CD

     Трек |   Старт  | Длительность | Начальный сектор | Конечный сектор
    ---------------------------------------------------------------------
       1  |  0:00.00 |    3:22.29   |           0      |      15178     
       2  |  3:22.29 |    4:02.22   |       15179      |      33350     
       3  |  7:24.51 |    3:39.58   |       33351      |      49833     
       4  | 11:04.34 |    3:09.62   |       49834      |      64070     
       5  | 14:14.21 |    5:28.22   |       64071      |      88692     
       6  | 19:42.43 |    3:34.04   |       88693      |     104746     
       7  | 23:16.47 |    3:34.04   |      104747      |     120800     
       8  | 26:50.51 |    3:46.62   |      120801      |     137812     
       9  | 30:37.38 |    3:50.40   |      137813      |     155102     
      10  | 34:28.03 |    3:38.37   |      155103      |     171489     
      11  | 38:06.40 |    3:33.45   |      171490      |     187509     
      12  | 41:40.10 |    3:54.35   |      187510      |     205094     
      13  | 45:34.45 |    3:59.03   |      205095      |     223022     
      14  | 49:33.48 |    3:54.26   |      223023      |     240598     
      15  | 53:27.74 |    5:14.25   |      240599      |     264173     

Характеристики диапазона извлечения и сообщения об ошибках

Выбранный диапазон

     Имя файла D:\Bit Torrent\DJ  Hits\Various  Artists - DJ  Hits  Volume  5  ( Super  Dance  Musik )\Covers\Various  Artists - DJ  Hits  Volume  5  ( Super  Dance  Musik ).wav

     Пиковый уровень 100.0 %
     Качество диапазона 100.0 %
     CRC теста 61F2109F
     CRC копии 61F2109F
     Копирование... OK

Ошибок не произошло

 
AccurateRip: сводка
 
Трек  1  нет в базе данных
Трек  2  нет в базе данных
Трек  3  нет в базе данных
Трек  4  нет в базе данных
Трек  5  нет в базе данных
Трек  6  нет в базе данных
Трек  7  нет в базе данных
Трек  8  нет в базе данных
Трек  9  нет в базе данных
Трек 10  нет в базе данных
Трек 11  нет в базе данных
Трек 12  нет в базе данных
Трек 13  нет в базе данных
Трек 14  нет в базе данных
Трек 15  нет в базе данных
 
Ни одного трека нет в базе AccurateRip

Конец отчёта

Цитата:

Номер #: 942.358-2 RMG 1115-2 (Название лейбла)
Не забываем указывать лейбл.
Alex2GB
Готово
Также на диске редкий трек Sushi - Let It Swing, в мп3 его даже нет в нете, только на продаже.

Страница 1 из 1

new_topic  reply_topic

Текущее время: 25-Янв 11:11
Часовой пояс: GMT + 4

m Сделано с любовью PR-CY.ru Каталог webplus.info