Вход на сайт

Имя:
Пароль:

· Забыли пароль?
logo
Портал Форум
Регистрация Вход


new_topic  reply_topic

  (Drum 'n' Bass, Jungle) Various Artists - Diamond Jungle Collection 1998, APE (image + .cue)

pic
Год выпуска: 1998
Производитель: Россия
Жанр: Drum 'n' Bass, Jungle
Номер #: DS 9804/9805 Diamond CD
Продолжительность: CD 1 72:03 CD 2 72:52

Тип издания: сборник
Аудио кодек: APE
Тип рипа: (image + .cue)
Битрейт аудио: lossless

Треклист:

CD 1

01. One True Parker - Bubble Gum ( Ray Keith Remix )
02. Omni Trio - Trippin' On Broken Beats ( Carlito Mix )
03. Mandalay - Flowers Bloom ( Foul Play Mix )
04. St.Etienne - The Sea ( PFM Mix )
05. Advantage - Cassiopeia
06. Grace - If I Could Fly
07. Future Loop Foundation - I Wan' t To Believe
08. Land of My Mothers - Tra Di-Di
09. NGO - Taken ( Windermere Dub Mix By T-Power )
10. Jimpster - Martian Arts
11. Horns Of Plenty - Altogether Blu

CD 2

01. Ini Kamoze - Here Comes The Hotstepper ( Booyaka Remix )
02. DJ Soul Slinger - Africa
03. Jamie Myerson - Revisions
04. T-Power vs. MK Ultra - Mutant Jazz
05. JX - Close To You' r Heart ( The Immortals Remix )
06. Olive - Outlaw ( Roni Size Remix )
07. Goldie - Innercitylife ( Peshay Mix )
08. Dimentions Of Elegance - Naked Symphony
09. B.L.I.M - Jeamland
10. Nitin Sawney - Voices

Код:

Exact Audio Copy V0.99 prebeta 5 from 4. May 2009

Отчёт EAC об извлечении, выполненном 10. июня 2012, 23:05

Various Artists / Diamond Jungle Collection vol. 1 (CD 1)

Дисковод: Optiarc DVD RW AD-7263S   Adapter: 5  ID: 0

Режим чтения                 : Достоверность
Использование точного потока : Да
Отключение кэша аудио        : Да
Использование указателей C2  : Нет

Коррекция смещения при чтении                     : 48
Способность читать области Lead-in и Lead-out     : Нет
Заполнение пропущенных сэмплов тишиной            : Да
Удаление блоков с тишиной в начале и конце        : Нет
При вычислениях CRC использовались нулевые сэмплы : Да
Интерфейс                                         : Встроенный Win32-интерфейс для Win NT/2000

Выходной формат          : Monkey's Audio (без потерь)
Выбранный битрейт        : Extra High Lossless Compression
Качество                 : Высокий
Добавление ID3-тэга      : Нет
Утилита сжатия           : C:\Program Files (x86)\Monkey's Audio\MAC.exe
Дополнительные параметры : -w "Artist=%a" -w "Title=%t" -w "Album=%g" -w "Year=%y" -w "Track=%n" -w "Genre=%m" -h %s %d

TOC извлечённого CD

     Трек |   Старт  | Длительность | Начальный сектор | Конечный сектор
    ---------------------------------------------------------------------
       1  |  0:00.00 |    7:11.04   |           0      |      32328     
       2  |  7:11.04 |    6:34.45   |       32329      |      61923     
       3  | 13:45.49 |    6:38.57   |       61924      |      91830     
       4  | 20:24.31 |    9:37.27   |       91831      |     135132     
       5  | 30:01.58 |    5:28.27   |      135133      |     159759     
       6  | 35:30.10 |    4:47.35   |      159760      |     181319     
       7  | 40:17.45 |    7:27.04   |      181320      |     214848     
       8  | 47:44.49 |    5:11.24   |      214849      |     238197     
       9  | 52:55.73 |    6:07.15   |      238198      |     265737     
      10  | 59:03.13 |    6:39.65   |      265738      |     295727     
      11  | 65:43.03 |    6:20.71   |      295728      |     324298     

Характеристики диапазона извлечения и сообщения об ошибках

Выбранный диапазон

     Имя файла D:\Bit Torrent\Новая папка\Новая папка\Various Artists - Diamond Jungle Collection vol. 1 (CD 1).wav

     Пиковый уровень 100.0 %
     Качество диапазона 100.0 %
     CRC теста 1A5DFAC7
     CRC копии 1A5DFAC7
     Копирование... OK

Ошибок не произошло

 
AccurateRip: сводка
 
Трек  1  точное извлечение (доверие 1)  [77EDDE49]
Трек  2  точное извлечение (доверие 1)  [86DE9F04]
Трек  3  точное извлечение (доверие 1)  [51B6C9B1]
Трек  4  точное извлечение (доверие 1)  [4A3A1DCE]
Трек  5  точное извлечение (доверие 1)  [75A1BCFA]
Трек  6  точное извлечение (доверие 1)  [6F563369]
Трек  7  точное извлечение (доверие 1)  [1370995A]
Трек  8  точное извлечение (доверие 1)  [FD0DC985]
Трек  9  точное извлечение (доверие 1)  [B71DA597]
Трек 10  точное извлечение (доверие 1)  [D5A8FB9D]
Трек 11  точное извлечение (доверие 1)  [309CF57E]
 
Все треки извлечены точно

Конец отчёта

Код:

Exact Audio Copy V0.99 prebeta 5 from 4. May 2009

Отчёт EAC об извлечении, выполненном 10. июня 2012, 23:52

Various  Artists / Diamond  Jungle  Collection  Vol. 1  ( CD 2 )

Дисковод: Optiarc DVD RW AD-7263S   Adapter: 5  ID: 0

Режим чтения                 : Достоверность
Использование точного потока : Да
Отключение кэша аудио        : Да
Использование указателей C2  : Нет

Коррекция смещения при чтении                     : 48
Способность читать области Lead-in и Lead-out     : Нет
Заполнение пропущенных сэмплов тишиной            : Да
Удаление блоков с тишиной в начале и конце        : Нет
При вычислениях CRC использовались нулевые сэмплы : Да
Интерфейс                                         : Встроенный Win32-интерфейс для Win NT/2000

Выходной формат          : Monkey's Audio (без потерь)
Выбранный битрейт        : Extra High Lossless Compression
Качество                 : Высокий
Добавление ID3-тэга      : Нет
Утилита сжатия           : C:\Program Files (x86)\Monkey's Audio\MAC.exe
Дополнительные параметры : -w "Artist=%a" -w "Title=%t" -w "Album=%g" -w "Year=%y" -w "Track=%n" -w "Genre=%m" -h %s %d

TOC извлечённого CD

     Трек |   Старт  | Длительность | Начальный сектор | Конечный сектор
    ---------------------------------------------------------------------
       1  |  0:00.00 |    5:36.64   |           0      |      25263     
       2  |  5:36.64 |    5:43.72   |       25264      |      51060     
       3  | 11:20.61 |    7:19.39   |       51061      |      84024     
       4  | 18:40.25 |    6:29.12   |       84025      |     113211     
       5  | 25:09.37 |   12:14.32   |      113212      |     168293     
       6  | 37:23.69 |    9:12.53   |      168294      |     209746     
       7  | 46:36.47 |    9:43.07   |      209747      |     253478     
       8  | 56:19.54 |    9:08.15   |      253479      |     294593     
       9  | 65:27.69 |    5:05.20   |      294594      |     317488     
      10  | 70:33.14 |    2:18.66   |      317489      |     327904     

Характеристики диапазона извлечения и сообщения об ошибках

Выбранный диапазон

     Имя файла D:\Bit Torrent\Новая папка\Various  Artists - Diamond  Jungle  Collection\Various  Artists - Diamond  Jungle  Collection  Vol. 1  ( CD 2 )\Various  Artists - Diamond  Jungle  Collection  Vol. 1  ( CD 2 ).wav

     Пиковый уровень 100.0 %
     Качество диапазона 100.0 %
     CRC теста B4796C9D
     CRC копии B4796C9D
     Копирование... OK

Ошибок не произошло

 
AccurateRip: сводка
 
Трек  1  точное извлечение (доверие 1)  [5C4C33A2]
Трек  2  точное извлечение (доверие 1)  [D9461D4C]
Трек  3  точное извлечение (доверие 1)  [4CA68528]
Трек  4  точное извлечение (доверие 1)  [0C807F1F]
Трек  5  точное извлечение (доверие 1)  [3F085F09]
Трек  6  точное извлечение (доверие 1)  [89BF4A5C]
Трек  7  точное извлечение (доверие 1)  [67646C51]
Трек  8  точное извлечение (доверие 1)  [7E1749BA]
Трек  9  точное извлечение (доверие 1)  [B6D9BA9F]
Трек 10  точное извлечение (доверие 1)  [1B2E015C]
 
Все треки извлечены точно

Конец отчёта

Страница 1 из 1

new_topic  reply_topic

Текущее время: 18-Янв 11:04
Часовой пояс: GMT + 4

m Сделано с любовью PR-CY.ru Каталог webplus.info