Вход на сайт

Имя:
Пароль:

· Забыли пароль?
logo
Портал Форум
Регистрация Вход


new_topic  reply_topic

  (Pop, Ballad) Various Artists - Romantic Collection Volume 3 2000, APE (image + .cue)

pic
Год выпуска: 2000
Производитель: Россия
Жанр: Pop, Ballad
Номер #: CD 053
Продолжительность: 70:14

Тип издания: сборник
Аудио кодек: APE
Тип рипа: (image + .cue)
Битрейт аудио: lossless

Треклист:

01. The Beatles - Yesterday
02. The Platters - Only You
03. Louis Armstrong - Go Down Moses
04. Frank Sinatra - Strangers In The Night
05. Glenn Miller’ s Orchestra - Moonlight Serenade
06. The Doors - Spanish Caravan
07. Black - Wonderful Life
08. The Smokie - I’ ll Meet You At Midnight
09. Scorpions - Still Loving You
10. Simon And Garfunkel - El Condor Pasa
11. Richard Clayderman - Theme From "Love Story"
12. Joe Dassin - A Toi
13. Sam Brown - Stop
14. Julio Iglesias - Mammy Blue
15. Paul Mauriat - Love Is Blue
16. Cher - Gypsies
17. Richard Marx - Hazard
18. Urge: Overkill - Girl, You’ ll Be A Woman Soon
19. Nino Rota - Love Theme From "The Godfather
20. Lonesome town - Richard Nelson
21. Michael Cretu - You' r Favorite Toy
22. The London Symphonic Orchestra - Yesterday

Доп. информация: 15 Трек MP3

Код:

Exact Audio Copy V0.99 prebeta 5 from 4. May 2009

Отчёт EAC об извлечении, выполненном 9. ноября 2012, 22:29

Various  Artists / Romantic  Collection  Volume  3

Дисковод: Optiarc DVD RW AD-7263S   Adapter: 5  ID: 0

Режим чтения                 : Достоверность
Использование точного потока : Да
Отключение кэша аудио        : Да
Использование указателей C2  : Нет

Коррекция смещения при чтении                     : 48
Способность читать области Lead-in и Lead-out     : Нет
Заполнение пропущенных сэмплов тишиной            : Да
Удаление блоков с тишиной в начале и конце        : Нет
При вычислениях CRC использовались нулевые сэмплы : Да
Интерфейс                                         : Встроенный Win32-интерфейс для Win NT/2000

Выходной формат          : Monkey's Audio (без потерь)
Выбранный битрейт        : Extra High Lossless Compression
Качество                 : Высокий
Добавление ID3-тэга      : Нет
Утилита сжатия           : C:\Program Files (x86)\Monkey's Audio\MAC.exe
Дополнительные параметры : -w "Artist=%a" -w "Title=%t" -w "Album=%g" -w "Year=%y" -w "Track=%n" -w "Genre=%m" -h %s %d

TOC извлечённого CD

     Трек |   Старт  | Длительность | Начальный сектор | Конечный сектор
    ---------------------------------------------------------------------
       1  |  0:00.00 |    2:05.61   |           0      |       9435     
       2  |  2:05.61 |    2:38.36   |        9436      |      21321     
       3  |  4:44.22 |    3:39.09   |       21322      |      37755     
       4  |  8:23.31 |    2:36.49   |       37756      |      49504     
       5  | 11:00.05 |    2:44.35   |       49505      |      61839     
       6  | 13:44.40 |    2:58.59   |       61840      |      75248     
       7  | 16:43.24 |    4:48.60   |       75249      |      96908     
       8  | 21:32.09 |    3:16.72   |       96909      |     111680     
       9  | 24:49.06 |    4:10.21   |      111681      |     130451     
      10  | 28:59.27 |    3:07.73   |      130452      |     144549     
      11  | 32:07.25 |    3:01.60   |      144550      |     158184     
      12  | 35:09.10 |    2:44.65   |      158185      |     170549     
      13  | 37:54.00 |    3:14.23   |      170550      |     185122     
      14  | 41:08.23 |    4:12.61   |      185123      |     204083     
      15  | 45:21.09 |    2:36.34   |      204084      |     215817     
      16  | 47:57.43 |    4:23.73   |      215818      |     235615     
      17  | 52:21.41 |    3:13.35   |      235616      |     250125     
      18  | 55:35.01 |    3:10.34   |      250126      |     264409     
      19  | 58:45.35 |    2:40.10   |      264410      |     276419     
      20  | 61:25.45 |    2:14.58   |      276420      |     286527     
      21  | 63:40.28 |    3:24.71   |      286528      |     301898     
      22  | 67:05.24 |    3:09.37   |      301899      |     316110     

Характеристики диапазона извлечения и сообщения об ошибках

Выбранный диапазон

     Имя файла D:\Bit Torrent\Новая папка\Various  Artists - Romantic  Collection  Vol. 3\Various  Artists - Romantic  Collection  Volume  3.wav

     Пиковый уровень 89.9 %
     Качество диапазона 100.0 %
     CRC теста 8C8BD2A9
     CRC копии 8C8BD2A9
     Копирование... OK

Ошибок не произошло

 
AccurateRip: сводка
 
Трек  1  нет в базе данных
Трек  2  нет в базе данных
Трек  3  нет в базе данных
Трек  4  нет в базе данных
Трек  5  нет в базе данных
Трек  6  нет в базе данных
Трек  7  нет в базе данных
Трек  8  нет в базе данных
Трек  9  нет в базе данных
Трек 10  нет в базе данных
Трек 11  нет в базе данных
Трек 12  нет в базе данных
Трек 13  нет в базе данных
Трек 14  нет в базе данных
Трек 15  нет в базе данных
Трек 16  нет в базе данных
Трек 17  нет в базе данных
Трек 18  нет в базе данных
Трек 19  нет в базе данных
Трек 20  нет в базе данных
Трек 21  нет в базе данных
Трек 22  нет в базе данных
 
Ни одного трека нет в базе AccurateRip

Конец отчёта
shutov12 ты где раздабыл это? Случаем не завалялись другие версии.
Привет Димка. Только этот диск, других нет пока. Будем искать, может найдём. Кстати. у меня материал заканчивается. Скоро нечего будет релезить на сайте.

Цитата:

shutov12 ты где раздабыл это?
Как где на знаменитом НН Радиорынке, там особые рары продаются
Ага. С него самого сосед принёс. Тоже понемножку вкладывает своё богатство в развитие сайта. Сам он вообще ничего не умеет делать с компом, приходится мне ношу брать.

Страница 1 из 1

new_topic  reply_topic

Текущее время: 25-Янв 11:04
Часовой пояс: GMT + 4

m Сделано с любовью PR-CY.ru Каталог webplus.info