Вход на сайт

Имя:
Пароль:

· Забыли пароль?
logo
Портал Форум
Регистрация Вход


new_topic  reply_topic

  (Pop, Trance, Club) In-Grid & Company - The Finest Dance (Compilation From France) 2001, APE (image + .cue)

pic
Год выпуска: 2001
Производитель: Россия
Жанр: Pop, Trance, Club
Номер #: VA 1462 Tornado Records
Продолжительность: 76:34

Тип издания: сборник
Аудио кодек: APE
Тип рипа: (image + .cue)
Битрейт аудио: lossless

Треклист:

01. In-Grid - Tu Es Foutu ( Radio Edit )
02. One-T - Music Is The One-T ODC
03. Galleon - Shining Ligh
04. The Nightflyer - Voyage, Voyage
05. Doctorlive - Babylon Traffic Jam
06. K 'N' K Feat. Tina - Protection
07. Cassius - The Sound Of Violence ( David Guetta Remix )
08. Kate Ryan - Desenchantee ( Club Mix )
09. Bosco - Satellite
10. Gingko - Strawberry Split
11. Freandsheap Feat. Troy B. - Shady Lady
12. Dax Rider' s - Feat. Serge Gainsburg - No Comment
13. The Youngstep' s - Smile
14. Tommy Hools - Le Levant
15. Mouloud - Can Make Up You' r Mind
16. In-Grid - Tu Es Foutu ( Harlem Hustless Club Mix )

Доп. информация: Диска на данный момент нет в Базе Данных. Причина неизвестна ( Доверие 1 ).
Треки 1, 4, 7, 8, 16 MP3

Код:

Exact Audio Copy V0.99 prebeta 5 from 4. May 2009

Отчёт EAC об извлечении, выполненном 7. октября 2011, 19:54

In-Grid  &  Company / The  Finest  Dance  ( Compilation  From  France )

Дисковод: PIONEER DVD-RW  DVR-110D   Adapter: 1  ID: 1

Режим чтения                 : Достоверность
Использование точного потока : Да
Отключение кэша аудио        : Да
Использование указателей C2  : Нет

Коррекция смещения при чтении                     : 48
Способность читать области Lead-in и Lead-out     : Нет
Заполнение пропущенных сэмплов тишиной            : Да
Удаление блоков с тишиной в начале и конце        : Нет
При вычислениях CRC использовались нулевые сэмплы : Да
Интерфейс                                         : Встроенный Win32-интерфейс для Win NT/2000

Выходной формат          : Monkey's Audio (без потерь)
Выбранный битрейт        : Extra High Lossless Compression
Качество                 : Высокий
Добавление ID3-тэга      : Нет
Утилита сжатия           : C:\Program Files (x86)\Monkey's Audio\MAC.exe
Дополнительные параметры : -w "Artist=%a" -w "Title=%t" -w "Album=%g" -w "Year=%y" -w "Track=%n" -w "Genre=%m" -h %s %d

TOC извлечённого CD

     Трек |   Старт  | Длительность | Начальный сектор | Конечный сектор
    ---------------------------------------------------------------------
       1  |  0:00.00 |    3:37.26   |           0      |      16300     
       2  |  3:37.26 |    3:59.52   |       16301      |      34277     
       3  |  7:37.03 |    3:57.10   |       34278      |      52062     
       4  | 11:34.13 |    4:08.44   |       52063      |      70706     
       5  | 15:42.57 |    4:05.46   |       70707      |      89127     
       6  | 19:48.28 |    3:54.08   |       89128      |     106685     
       7  | 23:42.36 |    7:35.16   |      106686      |     140826     
       8  | 31:17.52 |    8:29.41   |      140827      |     179042     
       9  | 39:47.18 |    3:40.58   |      179043      |     195600     
      10  | 43:28.01 |    3:14.37   |      195601      |     210187     
      11  | 46:42.38 |    3:53.45   |      210188      |     227707     
      12  | 50:36.08 |    5:37.21   |      227708      |     253003     
      13  | 56:13.29 |    5:08.00   |      253004      |     276103     
      14  | 61:21.29 |    4:06.42   |      276104      |     294595     
      15  | 65:27.71 |    3:33.55   |      294596      |     310625     
      16  | 69:01.51 |    7:32.26   |      310626      |     344551     

Характеристики диапазона извлечения и сообщения об ошибках

Выбранный диапазон

     Имя файла D:\Bit Torrent\Новая папка\In-Grid  &  Company - The  Finest  Dance  ( Compilation  From  France ).wav

     Пиковый уровень 96.8 %
     Качество диапазона 100.0 %
     CRC теста ED3093FB
     CRC копии ED3093FB
     Копирование... OK

Ошибок не произошло

 
AccurateRip: сводка
 
Трек  1  точное извлечение (доверие 1)  [095AD9C8]
Трек  2  точное извлечение (доверие 1)  [1F1448C0]
Трек  3  точное извлечение (доверие 1)  [77409BCC]
Трек  4  точное извлечение (доверие 1)  [860D1C48]
Трек  5  точное извлечение (доверие 1)  [744F1757]
Трек  6  точное извлечение (доверие 1)  [6612C190]
Трек  7  точное извлечение (доверие 1)  [DB04A766]
Трек  8  точное извлечение (доверие 1)  [5CBDD712]
Трек  9  точное извлечение (доверие 1)  [F9835E70]
Трек 10  точное извлечение (доверие 1)  [25F79B93]
Трек 11  точное извлечение (доверие 1)  [5A012601]
Трек 12  точное извлечение (доверие 1)  [70297B34]
Трек 13  точное извлечение (доверие 1)  [21E279B0]
Трек 14  точное извлечение (доверие 1)  [13E6AB76]
Трек 15  точное извлечение (доверие 1)  [3945BBFA]
Трек 16  точное извлечение (доверие 1)  [84EAF47D]
 
Все треки извлечены точно

Конец отчёта

Страница 1 из 1

new_topic  reply_topic

Текущее время: 25-Янв 12:16
Часовой пояс: GMT + 4

m Сделано с любовью PR-CY.ru Каталог webplus.info