Вход на сайт

Имя:
Пароль:

· Забыли пароль?
logo
Портал Форум
Регистрация Вход


new_topic  reply_topic

  (Soundtrack) Hits From The Movies. CD1 - 1996, FLAC (image + .cue)

pic
Год выпуска: 1996
Производитель: Европа
Жанр: Soundtrack
Номер #: MDT8276-1 (MasterTone Inc)
Продолжительность: 0:43:34

Тип издания: сборник
Аудио кодек: FLAC
Тип рипа: (image + .cue)
Битрейт аудио: lossless

Треклист:

  1. Celine Dion - My Heart Will Go On (from 'Titanic') (4:37)
  2. Eric Clapton - Change The World (from 'Phenomenon') (3:52)
  3. Vanessa Williams - Colours Of The Wind (from 'Pocahontas') (4:11)
  4. Peter Frampton - Baby I Love Your Way (from 'Reality Bites') (4:27)
  5. Whitney Houston - I Will Always Love You (from 'The Bodyguard') (4:31)
  6. Tony Bennett - The Way You Look Tonight (from 'My Best Friend's Wedding') (3:10)
  7. Chris Isaak - Wicked Game (from 'Wild At Heart') (4:44)
  8. Peabo Bryson - When I Fall In Love (from 'Sleepless In Seattle') (4:23)
  9. Babyface - My Heart Is Calling (from 'The Preacher's Wife') (4:12)
  10. R. Kelly - I Believe I Can Fly (from 'Space Jam') (5:23)

Код:

Exact Audio Copy V0.99 prebeta 5 from 4. May 2009

Отчёт EAC об извлечении, выполненном 20. ноября 2012, 1:33

Various / Hits From The Movies. CD1

Дисковод: TSSTcorpCDDVDW SH-S223B   Adapter: 2  ID: 0

Режим чтения                 : Достоверность
Использование точного потока : Да
Отключение кэша аудио        : Да
Использование указателей C2  : Нет

Коррекция смещения при чтении                     : 6
Способность читать области Lead-in и Lead-out     : Нет
Заполнение пропущенных сэмплов тишиной            : Да
Удаление блоков с тишиной в начале и конце        : Нет
При вычислениях CRC использовались нулевые сэмплы : Да
Интерфейс                                         : Встроенный Win32-интерфейс для Win NT/2000

Выходной формат : Внутренние WAV-операции
Формат сэмплов  : 44.100 Гц; 16 бит; стерео

TOC извлечённого CD

     Трек |   Старт  | Длительность | Начальный сектор | Конечный сектор
    ---------------------------------------------------------------------
       1  |  0:00.00 |    4:37.43   |           0      |      20817     
       2  |  4:37.43 |    3:52.37   |       20818      |      38254     
       3  |  8:30.05 |    4:11.58   |       38255      |      57137     
       4  | 12:41.63 |    4:27.57   |       57138      |      77219     
       5  | 17:09.45 |    4:31.19   |       77220      |      97563     
       6  | 21:40.64 |    3:10.51   |       97564      |     111864     
       7  | 24:51.40 |    4:44.65   |      111865      |     133229     
       8  | 29:36.30 |    4:23.00   |      133230      |     152954     
       9  | 33:59.30 |    4:12.05   |      152955      |     171859     
      10  | 38:11.35 |    5:23.08   |      171860      |     196092     

Характеристики диапазона извлечения и сообщения об ошибках

Выбранный диапазон

     Имя файла K:\Саундтреки\Hits From The Movies. 3CD\CD1\Hits From The Movies. CD1.wav

     Пиковый уровень 100.0 %
     Качество диапазона 100.0 %
     CRC теста 05A02CF6
     CRC копии 05A02CF6
     Копирование... OK

Ошибок не произошло

 
AccurateRip: сводка
 
Трек  1  нет в базе данных
Трек  2  нет в базе данных
Трек  3  нет в базе данных
Трек  4  нет в базе данных
Трек  5  нет в базе данных
Трек  6  нет в базе данных
Трек  7  нет в базе данных
Трек  8  нет в базе данных
Трек  9  нет в базе данных
Трек 10  нет в базе данных
 
Ни одного трека нет в базе AccurateRip

Конец отчёта

Страница 1 из 1

new_topic  reply_topic

Текущее время: 25-Янв 11:28
Часовой пояс: GMT + 4

m Сделано с любовью PR-CY.ru Каталог webplus.info