Вход на сайт

Имя:
Пароль:

· Забыли пароль?
logo
Портал Форум
Регистрация Вход


new_topic  reply_topic

  (Soundtrack) Hits From The Movies. CD3 - 1996, FLAC (image + .cue)

pic
Год выпуска: 1996
Производитель: Европа
Жанр: Soundtrack
Номер #: MDT8276-3 (MasterTone Inc)
Продолжительность: 0:38:03

Тип издания: сборник
Аудио кодек: FLAC
Тип рипа: (image + .cue)
Битрейт аудио: lossless

Треклист:

  1. Neil Diamond - Girl You'll Be A Woman Soon (from 'Pulp Fiction') (3:15)
  2. Harley - Make Me Smile (Come Up And See Me) (from 'Pulp Fiction') (3:47)
  3. Cole, Clivelles - Deeper Love (from 'Sister Act II') (4:42)
  4. Kamoze, Gibbs - Here Comes The Hotstepper (from 'Prêt-à-Porter (Ready To Wear)') (4:06)
  5. Elton John, TimRice - Can You Feel The Love Tonight (from 'The Lion King') (4:02)
  6. Bruce Springsteen, Asbury Park, NJ - Streets Of Philadelphia (from 'Philadelphia') (4:00)
  7. Bono, The Edge - GoldenEye (from 'GoldenEye') (3:27)
  8. Seal - Kiss From A Rose (from 'Batman Forever') (4:05)
  9. Burt Bacharach, Hal David - I Say A Little Prayer (from 'My Best Friend's Wedding') (3:12)
  10. Babyface - Exhale (Shoop Shoop) (from 'Waiting To Exhale') (3:24)

Код:

Exact Audio Copy V0.99 prebeta 5 from 4. May 2009

Отчёт EAC об извлечении, выполненном 20. ноября 2012, 5:51

Various / Hits From The Movies. CD3

Дисковод: TSSTcorpCDDVDW SH-S223B   Adapter: 2  ID: 0

Режим чтения                 : Достоверность
Использование точного потока : Да
Отключение кэша аудио        : Да
Использование указателей C2  : Нет

Коррекция смещения при чтении                     : 6
Способность читать области Lead-in и Lead-out     : Нет
Заполнение пропущенных сэмплов тишиной            : Да
Удаление блоков с тишиной в начале и конце        : Нет
При вычислениях CRC использовались нулевые сэмплы : Да
Интерфейс                                         : Встроенный Win32-интерфейс для Win NT/2000

Выходной формат : Внутренние WAV-операции
Формат сэмплов  : 44.100 Гц; 16 бит; стерео

TOC извлечённого CD

     Трек |   Старт  | Длительность | Начальный сектор | Конечный сектор
    ---------------------------------------------------------------------
       1  |  0:00.00 |    3:15.24   |           0      |      14648     
       2  |  3:15.24 |    3:47.12   |       14649      |      31685     
       3  |  7:02.36 |    4:42.43   |       31686      |      52878     
       4  | 11:45.04 |    4:06.32   |       52879      |      71360     
       5  | 15:51.36 |    4:02.52   |       71361      |      89562     
       6  | 19:54.13 |    4:00.10   |       89563      |     107572     
       7  | 23:54.23 |    3:27.13   |      107573      |     123110     
       8  | 27:21.36 |    4:05.26   |      123111      |     141511     
       9  | 31:26.62 |    3:12.27   |      141512      |     155938     
      10  | 34:39.14 |    3:24.38   |      155939      |     171276     

Характеристики диапазона извлечения и сообщения об ошибках

Выбранный диапазон

     Имя файла K:\Саундтреки\Hits From The Movies. 3CD\CD3\Hits From The Movies. CD3.wav

     Пиковый уровень 100.0 %
     Качество диапазона 100.0 %
     CRC теста FCDDA2A2
     CRC копии FCDDA2A2
     Копирование... OK

Ошибок не произошло

 
AccurateRip: сводка
 
Трек  1  нет в базе данных
Трек  2  нет в базе данных
Трек  3  нет в базе данных
Трек  4  нет в базе данных
Трек  5  нет в базе данных
Трек  6  нет в базе данных
Трек  7  нет в базе данных
Трек  8  нет в базе данных
Трек  9  нет в базе данных
Трек 10  нет в базе данных
 
Ни одного трека нет в базе AccurateRip

Конец отчёта
Старые добрые песенки, спасибо!

Страница 1 из 1

new_topic  reply_topic

Текущее время: 25-Янв 11:16
Часовой пояс: GMT + 4

m Сделано с любовью PR-CY.ru Каталог webplus.info