Вход на сайт

Имя:
Пароль:

· Забыли пароль?
logo
Портал Форум
Регистрация Вход


new_topic  reply_topic

  (Pop / Dance) Various Artists - Танцевальный Рай 10 2001, FLAC (image + .cue)

pic
Год выпуска: 2001
Страна: Разные
Производитель: Россия
Жанр: Pop / Dance
Номер #: LP 080-01 [Танцевальный рай]
Продолжительность: ~ 74 минуты

Тип издания: сборник
Аудио кодек: FLAC
Тип рипа: (image + .cue)
Битрейт аудио: lossless

Треклист:

01. K-Zone - Crushing Eyes
02. Sonique - Sky (radio edit)
03. John the Whistler - I'm In Love (German radio edit)
04. Darling - Letkiss (Dub Dub Dubi Dubi Dub)
05. Billie Piper - Day & Night
06. Texas - In Demand
07. Gigi D'Agostino - La Passion
08. Camila Brink - Bye Bye Forever
09. Craig David - 7 Days
10. Spiller - Groovejet (If This Ain't Love)
11. Anita Ward vs. Funkstar De Luxe - Ring My Bell
12. ATB feat. York - The Fields Of Love
13. Kim Lukas - Let It Be The Night
14. Vanessa Amorosi - Absolutely Everybody (Latino Version)
15. Plazma - The Sweetest Surrender
16. Sash! - With My Own Eyes
17. The Underdog Project - Summer Jam
18. Elaine Terry - You've Got A Friend
19. Tom Jones vs. Funkstar De Luxe - She's A Lady
20. Scooter - She's The Sun

Код:

Exact Audio Copy V1.0 beta 3 from 29. August 2011

Отчёт EAC об извлечении, выполненном 16. ноября 2012, 14:14

Various Artists / Танцевальный Рай 10

Дисковод: TSSTcorpCDDVDW SH-222BB   Adapter: 1  ID: 0

Режим чтения                 : Достоверность
Использование точного потока : Да
Отключение кэша аудио        : Да
Использование указателей C2  : Нет

Коррекция смещения при чтении                     : 6
Способность читать области Lead-in и Lead-out     : Нет
Заполнение пропущенных сэмплов тишиной            : Да
Удаление блоков с тишиной в начале и конце        : Нет
При вычислениях CRC использовались нулевые сэмплы : Да
Интерфейс                                         : Встроенный Win32-интерфейс для Win NT/2000

Выходной формат : Внутренние WAV-операции
Формат сэмплов  : 44.100 Гц; 16 бит; стерео

TOC извлечённого CD

     Трек |   Старт  | Длительность | Начальный сектор | Конечный сектор
    ---------------------------------------------------------------------
       1  |  0:00.00 |    3:36.37   |           0      |      16236     
       2  |  3:36.37 |    4:20.30   |       16237      |      35766     
       3  |  7:56.67 |    3:28.21   |       35767      |      51387     
       4  | 11:25.13 |    2:58.52   |       51388      |      64789     
       5  | 14:23.65 |    3:13.70   |       64790      |      79334     
       6  | 17:37.60 |    3:56.73   |       79335      |      97107     
       7  | 21:34.58 |    3:28.73   |       97108      |     112780     
       8  | 25:03.56 |    2:57.04   |      112781      |     126059     
       9  | 28:00.60 |    3:49.67   |      126060      |     143301     
      10  | 31:50.52 |    3:41.55   |      143302      |     159931     
      11  | 35:32.32 |    3:35.60   |      159932      |     176116     
      12  | 39:08.17 |    3:40.13   |      176117      |     192629     
      13  | 42:48.30 |    3:52.35   |      192630      |     210064     
      14  | 46:40.65 |    3:25.64   |      210065      |     225503     
      15  | 50:06.54 |    4:14.10   |      225504      |     244563     
      16  | 54:20.64 |    3:38.05   |      244564      |     260918     
      17  | 57:58.69 |    3:28.38   |      260919      |     276556     
      18  | 61:27.32 |    3:57.43   |      276557      |     294374     
      19  | 65:25.00 |    4:47.58   |      294375      |     315957     
      20  | 70:12.58 |    3:38.10   |      315958      |     332317     

Характеристики диапазона извлечения и сообщения об ошибках

Выбранный диапазон

     Имя файла C:\EAC\Various Artists - Танцевальный Рай 10.wav

     Пиковый уровень 91.4 %
     Скорость извлечения 3.5 X
     Качество диапазона 100.0 %
     CRC теста 2DAE8637
     CRC копии 2DAE8637
     Копирование... OK

Ошибок не произошло

 
AccurateRip: сводка
 
Трек  1  : извлечено точно (доверие 1)  [8AEAF60C]  (AR v1)
Трек  2  : извлечено точно (доверие 1)  [3200587A]  (AR v1)
Трек  3  : извлечено точно (доверие 1)  [51D62FF2]  (AR v1)
Трек  4  : извлечено точно (доверие 1)  [E9020164]  (AR v1)
Трек  5  : извлечено точно (доверие 1)  [20B82180]  (AR v1)
Трек  6  : извлечено точно (доверие 1)  [80E5A8F6]  (AR v1)
Трек  7  : извлечено точно (доверие 1)  [DE77FA6F]  (AR v1)
Трек  8  : извлечено точно (доверие 1)  [CA496392]  (AR v1)
Трек  9  : извлечено точно (доверие 1)  [F476536A]  (AR v1)
Трек 10  : извлечено точно (доверие 1)  [836B5A83]  (AR v1)
Трек 11  : извлечено точно (доверие 1)  [16048FD9]  (AR v1)
Трек 12  : извлечено точно (доверие 1)  [5B2E95C6]  (AR v1)
Трек 13  : извлечено точно (доверие 1)  [F3A2FDE1]  (AR v1)
Трек 14  : извлечено точно (доверие 1)  [FAE18046]  (AR v1)
Трек 15  : извлечено точно (доверие 1)  [81C94C5D]  (AR v1)
Трек 16  : извлечено точно (доверие 1)  [4C6E78F7]  (AR v1)
Трек 17  : извлечено точно (доверие 1)  [AFB181EC]  (AR v1)
Трек 18  : извлечено точно (доверие 1)  [DBB6168E]  (AR v1)
Трек 19  : извлечено точно (доверие 1)  [3774FC05]  (AR v1)
Трек 20  : извлечено точно (доверие 1)  [D53DD400]  (AR v1)
 
Все треки извлечены точно

Конец отчёта



Страница 1 из 1

new_topic  reply_topic

Текущее время: 25-Янв 11:51
Часовой пояс: GMT + 4

m Сделано с любовью PR-CY.ru Каталог webplus.info