Вход на сайт

Имя:
Пароль:

· Забыли пароль?
logo
Портал Форум
Регистрация Вход


new_topic  reply_topic

  (Pop, Dance) Best Of Dance '88 - 1996, FLAC (image + .cue) lossless

pic
Год выпуска: 1996
Производитель: Германия
Жанр: Pop, Dance, Synthpop, SpaceSynth
Номер #: ZYX 10025-2 (ZYX Music)
Продолжительность: 1:08:58

Тип издания: сборник
Аудио кодек: FLAC
Тип рипа: (image + .cue)
Битрейт аудио: lossless

Треклист:

  1. Milli Vanilli - Girl You Know Its True
  2. Hipnosis - Droid
  3. B.V.M.P - I Need You
  4. Rick Astley - Whenever You Need Somebody
  5. Taylor Dayne - Tell It To My Heart
  6. Koto - Dragons Legend
  7. Francesco Napoli - Balla Balla
  8. Sandra - Heaven Can Wait
  9. O.K - Okay
  10. Kylie Minogue - I Should Be So Lucky
  11. Delegation - Thanks To You - The 88 Mix
  12. Billy Ocean - Get Outta My Dreams Get InTo My Car
  13. Tina Charles - Dance Little Lady
  14. Rofo - Rofos Theme
  15. First Patrol - Theme From Rambo ll
  16. Fancy feat. Grandmaster Tess & Steve D5 - Fools Cry Rap - Whenever Fools Cry
  17. Eddy Grant - Gimme Hope Joanna

Код:

Exact Audio Copy V0.99 prebeta 5 from 4. May 2009

Отчёт EAC об извлечении, выполненном 8. января 2013, 23:45

Various Artists / Best Of Dance '88

Дисковод: TSSTcorpCDDVDW SH-S223B   Adapter: 2  ID: 0

Режим чтения                 : Достоверность
Использование точного потока : Да
Отключение кэша аудио        : Да
Использование указателей C2  : Нет

Коррекция смещения при чтении                     : 6
Способность читать области Lead-in и Lead-out     : Нет
Заполнение пропущенных сэмплов тишиной            : Да
Удаление блоков с тишиной в начале и конце        : Нет
При вычислениях CRC использовались нулевые сэмплы : Да
Интерфейс                                         : Встроенный Win32-интерфейс для Win NT/2000

Выходной формат : Внутренние WAV-операции
Формат сэмплов  : 44.100 Гц; 16 бит; стерео

TOC извлечённого CD

     Трек |   Старт  | Длительность | Начальный сектор | Конечный сектор
    ---------------------------------------------------------------------
       1  |  0:00.00 |    4:14.25   |           0      |      19074     
       2  |  4:14.25 |    3:14.60   |       19075      |      33684     
       3  |  7:29.10 |    5:05.69   |       33685      |      56628     
       4  | 12:35.04 |    3:55.14   |       56629      |      74267     
       5  | 16:30.18 |    3:42.66   |       74268      |      90983     
       6  | 20:13.09 |    3:45.20   |       90984      |     107878     
       7  | 23:58.29 |    5:40.05   |      107879      |     133383     
       8  | 29:38.34 |    4:04.47   |      133384      |     151730     
       9  | 33:43.06 |    5:42.27   |      151731      |     177407     
      10  | 39:25.33 |    3:25.15   |      177408      |     192797     
      11  | 42:50.48 |    3:51.43   |      192798      |     210165     
      12  | 46:42.16 |    4:46.09   |      210166      |     231624     
      13  | 51:28.25 |    3:10.37   |      231625      |     245911     
      14  | 54:38.62 |    3:10.28   |      245912      |     260189     
      15  | 57:49.15 |    3:40.53   |      260190      |     276742     
      16  | 61:29.68 |    3:41.31   |      276743      |     293348     
      17  | 65:11.24 |    3:47.35   |      293349      |     310408     

Характеристики диапазона извлечения и сообщения об ошибках

Выбранный диапазон

     Имя файла K:\Зарубежные сборники\Best Of Dance '88 (1996)\Best Of Dance '88.wav

     Пиковый уровень 94.9 %
     Качество диапазона 99.9 %
     CRC теста 9CB499F5
     CRC копии 9CB499F5
     Копирование... OK

Ошибок не произошло

 
AccurateRip: сводка
 
Трек  1  точное извлечение (доверие 3)  [94511FF1]
Трек  2  точное извлечение (доверие 3)  [47002114]
Трек  3  точное извлечение (доверие 3)  [AA4CD1FD]
Трек  4  точное извлечение (доверие 3)  [C563A055]
Трек  5  точное извлечение (доверие 3)  [1A974BBE]
Трек  6  точное извлечение (доверие 3)  [DFE6D554]
Трек  7  точное извлечение (доверие 3)  [F23E6EF0]
Трек  8  точное извлечение (доверие 3)  [832931FD]
Трек  9  точное извлечение (доверие 3)  [979B7596]
Трек 10  точное извлечение (доверие 3)  [9344015C]
Трек 11  точное извлечение (доверие 3)  [5454AF28]
Трек 12  точное извлечение (доверие 3)  [619E91D3]
Трек 13  точное извлечение (доверие 3)  [A9140CE5]
Трек 14  точное извлечение (доверие 3)  [28DAB323]
Трек 15  точное извлечение (доверие 3)  [7D91BD63]
Трек 16  точное извлечение (доверие 3)  [182623A5]
Трек 17  точное извлечение (доверие 3)  [4E377184]
 
Все треки извлечены точно

Конец отчёта
Nuevo en esta página.-

Страница 1 из 1

new_topic  reply_topic

Текущее время: 25-Янв 11:48
Часовой пояс: GMT + 4

m Сделано с любовью PR-CY.ru Каталог webplus.info