Вход на сайт

Имя:
Пароль:

· Забыли пароль?
logo
Портал Форум
Регистрация Вход


new_topic  reply_topic

  (Pop, Disco) Dance Superhits Of The 80's - 1999, FLAC (image + .cue) lossless

pic
Год выпуска: 1999
Производитель: Эстония
Жанр: Pop, Disco, Retro
Номер #: BRG 9533.2 (BRG)
Продолжительность: 1:13:56

Тип издания: сборник
Аудио кодек: FLAC
Тип рипа: (image + .cue)
Битрейт аудио: lossless

Треклист:

  1. Goombay Dance Band & Cool Summer Cuts - Sun Of Jamaica (3:50)
  2. F.R.David - Pick Up The Phone (3:11)
  3. Stephanie - Ouragan (4:37)
  4. Desireless - Voyage, Voyage (4:21)
  5. Gazebo - Telephone Mama (5:42)
  6. Saragossa Band - Zabadak (3:54)
  7. OpusS - Life Is Life (3:52)
  8. Joy - Hello (4:06)
  9. Joy Peters - Don't Lose Your Heart (3:02)
  10. Silent Circle - Touch In The Night (3:38)
  11. Ottawan - Hands Up (Give Me Your Heart) (4:48)
  12. Plastic Bertrand - Ca Plane Pour Moi (2:56)
  13. Sabrina - Boys (Summertime Loving) (3:53)
  14. Michael Bedford - Tonight (3:24)
  15. Valerie Dore - Lancelot (4:29)
  16. Savage - Goodbye (4:35)
  17. Luv - My Guy (3:50)
  18. Francesco Napoli - Balla...Balla! (5:42)

Код:

Exact Audio Copy V0.99 prebeta 5 from 4. May 2009

Отчёт EAC об извлечении, выполненном 9. января 2013, 20:35

Various / Dance Superhits Of The 80's

Дисковод: TSSTcorpCDDVDW SH-S223B   Adapter: 2  ID: 0

Режим чтения                 : Достоверность
Использование точного потока : Да
Отключение кэша аудио        : Да
Использование указателей C2  : Нет

Коррекция смещения при чтении                     : 6
Способность читать области Lead-in и Lead-out     : Нет
Заполнение пропущенных сэмплов тишиной            : Да
Удаление блоков с тишиной в начале и конце        : Нет
При вычислениях CRC использовались нулевые сэмплы : Да
Интерфейс                                         : Встроенный Win32-интерфейс для Win NT/2000

Выходной формат : Внутренние WAV-операции
Формат сэмплов  : 44.100 Гц; 16 бит; стерео

TOC извлечённого CD

     Трек |   Старт  | Длительность | Начальный сектор | Конечный сектор
    ---------------------------------------------------------------------
       1  |  0:00.00 |    3:50.10   |           0      |      17259     
       2  |  3:50.10 |    3:11.30   |       17260      |      31614     
       3  |  7:01.40 |    4:37.47   |       31615      |      52436     
       4  | 11:39.12 |    4:21.25   |       52437      |      72036     
       5  | 16:00.37 |    5:42.05   |       72037      |      97691     
       6  | 21:42.42 |    3:54.27   |       97692      |     115268     
       7  | 25:36.69 |    3:52.19   |      115269      |     132687     
       8  | 29:29.13 |    4:06.73   |      132688      |     151210     
       9  | 33:36.11 |    3:02.14   |      151211      |     164874     
      10  | 36:38.25 |    3:38.34   |      164875      |     181258     
      11  | 40:16.59 |    4:48.13   |      181259      |     202871     
      12  | 45:04.72 |    2:56.07   |      202872      |     216078     
      13  | 48:01.04 |    3:53.09   |      216079      |     233562     
      14  | 51:54.13 |    3:24.03   |      233563      |     248865     
      15  | 55:18.16 |    4:29.22   |      248866      |     269062     
      16  | 59:47.38 |    4:35.59   |      269063      |     289746     
      17  | 64:23.22 |    3:50.54   |      289747      |     307050     
      18  | 68:14.01 |    5:42.02   |      307051      |     332702     

Характеристики диапазона извлечения и сообщения об ошибках

Выбранный диапазон

     Имя файла K:\Зарубежные сборники\Dance Superhits Of The 80's (1999)\Dance Superhits Of The 80's.wav

     Пиковый уровень 99.9 %
     Качество диапазона 99.9 %
     CRC теста 68C085B9
     CRC копии 68C085B9
     Копирование... OK

Ошибок не произошло

 
AccurateRip: сводка
 
Трек  1  нет в базе данных
Трек  2  нет в базе данных
Трек  3  нет в базе данных
Трек  4  нет в базе данных
Трек  5  нет в базе данных
Трек  6  нет в базе данных
Трек  7  нет в базе данных
Трек  8  нет в базе данных
Трек  9  нет в базе данных
Трек 10  нет в базе данных
Трек 11  нет в базе данных
Трек 12  нет в базе данных
Трек 13  нет в базе данных
Трек 14  нет в базе данных
Трек 15  нет в базе данных
Трек 16  нет в базе данных
Трек 17  нет в базе данных
Трек 18  нет в базе данных
 
Ни одного трека нет в базе AccurateRip

Конец отчёта

Страница 1 из 1

new_topic  reply_topic

Текущее время: 25-Янв 10:28
Часовой пояс: GMT + 4

m Сделано с любовью PR-CY.ru Каталог webplus.info