Вход на сайт

Имя:
Пароль:

· Забыли пароль?
logo
Портал Форум
Регистрация Вход


new_topic  reply_topic

  (Pop, Europop) Eurochart 16-2000 - 2000, FLAC (image + .cue) lossless

pic
Год выпуска: 2000
Жанр: Pop, Europop, Rap, Trance, Dance
Номер #: нет
Продолжительность: 1:19:33

Тип издания: сборник
Аудио кодек: FLAC
Тип рипа: (image + .cue)
Битрейт аудио: lossless

Треклист:

  1. W.Houston & Enrique Iglesias - Could I have This Kiss Forever
  2. Modjo - Lady (Hear Me Tonight)
  3. U2 - Beautiful Day
  4. Madonna - Music
  5. Sonique - Sky
  6. Spice Girls - Holler
  7. Eminem - The Way I Am
  8. Backstreet Boys - Shape Of My Heart
  9. Christina Aguilera - Come On Over Baby
  10. Lenny Cravitz - Again
  11. Robbie Williams & Kylie Minogue - Kids
  12. Ricky Matrin - She Bangs
  13. ATC - My Heart Beats Like A Drum
  14. Lionel Richie - Angel
  15. Eagle Eye Cherry - Long Way Around
  16. Fatboy Slim - Sunset
  17. Melanie C - I Turn To You
  18. Spiller - Groovejet (If This Ain't Love)
  19. Darude - Sandstorm
  20. Anastacia - Not That Kind

Код:

Exact Audio Copy V0.99 prebeta 5 from 4. May 2009

Отчёт EAC об извлечении, выполненном 16. января 2013, 6:24

Various / Eurochart 16-2000

Дисковод: TSSTcorpCDDVDW SH-S223B   Adapter: 2  ID: 0

Режим чтения                 : Достоверность
Использование точного потока : Да
Отключение кэша аудио        : Да
Использование указателей C2  : Нет

Коррекция смещения при чтении                     : 6
Способность читать области Lead-in и Lead-out     : Нет
Заполнение пропущенных сэмплов тишиной            : Да
Удаление блоков с тишиной в начале и конце        : Нет
При вычислениях CRC использовались нулевые сэмплы : Да
Интерфейс                                         : Встроенный Win32-интерфейс для Win NT/2000

Выходной формат : Внутренние WAV-операции
Формат сэмплов  : 44.100 Гц; 16 бит; стерео

TOC извлечённого CD

     Трек |   Старт  | Длительность | Начальный сектор | Конечный сектор
    ---------------------------------------------------------------------
       1  |  0:00.00 |    4:21.67   |           0      |      19641     
       2  |  4:21.67 |    3:43.24   |       19642      |      36390     
       3  |  8:05.16 |    4:06.18   |       36391      |      54858     
       4  | 12:11.34 |    3:44.07   |       54859      |      71665     
       5  | 15:55.41 |    4:23.40   |       71666      |      91430     
       6  | 20:19.06 |    3:53.41   |       91431      |     108946     
       7  | 24:12.47 |    4:50.28   |      108947      |     130724     
       8  | 29:03.00 |    3:41.69   |      130725      |     147368     
       9  | 32:44.69 |    3:23.72   |      147369      |     162665     
      10  | 36:08.66 |    4:22.23   |      162666      |     182338     
      11  | 40:31.14 |    4:17.66   |      182339      |     201679     
      12  | 44:49.05 |    4:01.40   |      201680      |     219794     
      13  | 48:50.45 |    3:48.08   |      219795      |     236902     
      14  | 52:38.53 |    3:42.36   |      236903      |     253588     
      15  | 56:21.14 |    3:31.16   |      253589      |     269429     
      16  | 59:52.30 |    3:52.60   |      269430      |     286889     
      17  | 63:45.15 |    4:10.14   |      286890      |     305653     
      18  | 67:55.29 |    4:35.22   |      305654      |     326300     
      19  | 72:30.51 |    3:42.56   |      326301      |     343006     
      20  | 76:13.32 |    3:20.14   |      343007      |     358020     

Характеристики диапазона извлечения и сообщения об ошибках

Выбранный диапазон

     Имя файла K:\Зарубежные сборники\Eurochart 16-2000\Eurochart 16-2000.wav

     Пиковый уровень 100.0 %
     Качество диапазона 100.0 %
     CRC теста 431E734D
     CRC копии 431E734D
     Копирование... OK

Ошибок не произошло

 
AccurateRip: сводка
 
Трек  1  нет в базе данных
Трек  2  нет в базе данных
Трек  3  нет в базе данных
Трек  4  нет в базе данных
Трек  5  нет в базе данных
Трек  6  нет в базе данных
Трек  7  нет в базе данных
Трек  8  нет в базе данных
Трек  9  нет в базе данных
Трек 10  нет в базе данных
Трек 11  нет в базе данных
Трек 12  нет в базе данных
Трек 13  нет в базе данных
Трек 14  нет в базе данных
Трек 15  нет в базе данных
Трек 16  нет в базе данных
Трек 17  нет в базе данных
Трек 18  нет в базе данных
Трек 19  нет в базе данных
Трек 20  нет в базе данных
 
Ни одного трека нет в базе AccurateRip

Конец отчёта

Страница 1 из 1

new_topic  reply_topic

Текущее время: 25-Янв 10:50
Часовой пояс: GMT + 4

m Сделано с любовью PR-CY.ru Каталог webplus.info