Вход на сайт

Имя:
Пароль:

· Забыли пароль?
logo
Портал Форум
Регистрация Вход


new_topic  reply_topic

  (Club House, Progressive House) JKB ‎– Ibiza (How Are You), Maxi-CD, 2000, WAV (tracks + .cue), lossless

pic
Год выпуска: 2000
Страна: Germany
Производитель: House Nation
Жанр: Club House, Progressive House
Номер #: IDST 70768
Тип издания: сингл
Аудио кодек: WAV
Тип рипа: (tracks + .cue)
Битрейт аудио: lossless

Треклист:

1. Ibiza (How Are You) (Central Seven Radio Mix)
2. Ibiza (How Are You) (K.K. Project Killer Mix)
3. Ibiza (How Are You) (DJ Trooper Vs. Bonito Julio Mix)
4. Ibiza (How Are You) (Central Seven Club Mix)
5. Ibiza (How Are You) (Sam-Pling Club Mix)


Доп. информация:
_______________________________________________
http://www.discogs.com/JKB-Ibiza-How-Are-You/release/2174112

Код:

Exact Audio Copy V1.0 beta 3 from 29. August 2011

Отчёт EAC об извлечении, выполненном 20. января 2013, 18:24

JKB / Ibiza (How are u) (MCD)

Дисковод: Optiarc DVD+-RW AD-7560S   Adapter: 1  ID: 0

Режим чтения                 : Достоверность
Использование точного потока : Да
Отключение кэша аудио        : Да
Использование указателей C2  : Нет

Коррекция смещения при чтении                     : 6
Способность читать области Lead-in и Lead-out     : Нет
Заполнение пропущенных сэмплов тишиной            : Да
Удаление блоков с тишиной в начале и конце        : Нет
При вычислениях CRC использовались нулевые сэмплы : Да
Интерфейс                                         : Встроенный Win32-интерфейс для Win NT/2000
Обработка зазоров                                 : Добавлено к предыдущему треку

Выходной формат : Внутренние WAV-операции
Формат сэмплов  : 44.100 Гц; 16 бит; стерео

TOC извлечённого CD

     Трек |   Старт  | Длительность | Начальный сектор | Конечный сектор
    ---------------------------------------------------------------------
       1  |  0:00.00 |    3:26.45   |           0      |      15494     
       2  |  3:26.45 |    6:09.01   |       15495      |      43170     
       3  |  9:35.46 |    7:53.19   |       43171      |      78664     
       4  | 17:28.65 |    6:36.05   |       78665      |     108369     
       5  | 24:04.70 |    7:12.49   |      108370      |     140818     

Трек  1

     Имя файла Z:\[HD]\- [Base House] [VA & CDM]\[Синглы]\[Flac] JKB - Ibiza (How are u) (Maxi, CD) 2000\01 Ibiza (How are u) (Central Seven Radio Mix).wav

     Длина предзазора  0:00:02.00

     Пиковый уровень 98.8 %
     Скорость извлечения 1.3 X
     Качество трека 99.8 %
     CRC теста A44EEDC8
     CRC копии A44EEDC8
     Трек не обнаружен в базе AccurateRip
     Копирование... OK

Трек  2

     Имя файла Z:\[HD]\- [Base House] [VA & CDM]\[Синглы]\[Flac] JKB - Ibiza (How are u) (Maxi, CD) 2000\02 Ibiza (How are u) (K.K. Project Killer Mix).wav

     Длина предзазора  0:00:02.00

     Пиковый уровень 99.0 %
     Скорость извлечения 1.0 X
     Качество трека 99.7 %
     CRC теста 500E69E6
     CRC копии 500E69E6
     Трек не обнаружен в базе AccurateRip
     Копирование... OK

Трек  3

     Имя файла Z:\[HD]\- [Base House] [VA & CDM]\[Синглы]\[Flac] JKB - Ibiza (How are u) (Maxi, CD) 2000\03 Ibiza (How are u) (DJ Trooper vs. Bonito Julio Mix).wav

     Длина предзазора  0:00:02.00

     Пиковый уровень 99.0 %
     Скорость извлечения 1.8 X
     Качество трека 99.8 %
     CRC теста 82D06F6E
     CRC копии 82D06F6E
     Трек не обнаружен в базе AccurateRip
     Копирование... OK

Трек  4

     Имя файла Z:\[HD]\- [Base House] [VA & CDM]\[Синглы]\[Flac] JKB - Ibiza (How are u) (Maxi, CD) 2000\04 Ibiza (How are u) (Central Seven Club Mix).wav

     Длина предзазора  0:00:02.00

     Пиковый уровень 99.0 %
     Скорость извлечения 2.4 X
     Качество трека 99.9 %
     CRC теста B51A8A22
     CRC копии B51A8A22
     Трек не обнаружен в базе AccurateRip
     Копирование... OK

Трек  5

     Имя файла Z:\[HD]\- [Base House] [VA & CDM]\[Синглы]\[Flac] JKB - Ibiza (How are u) (Maxi, CD) 2000\05 Ibiza (How are u) (Sam-Pling Club Mix).wav

     Длина предзазора  0:00:02.00

     Пиковый уровень 99.8 %
     Скорость извлечения 2.1 X
     Качество трека 99.8 %
     CRC теста 4E76CE13
     CRC копии 4E76CE13
     Трек не обнаружен в базе AccurateRip
     Копирование... OK

Ни одного трека нет в базе AccurateRip

Ошибок не произошло

Конец отчёта

---- CUETools DB Plugin V2.1.3

[CTDB TOCID: CcNidMMFMYmLh9tgvRaTzJajJeM-] disk not present in database, Submit result: CcNidMMFMYmLh9tgvRaTzJajJeM- has been uploaded

==== Контрольная сумма отчёта BA9D450C4037B187D8703D5B11A9E54A5B09EB7FD6DD48DF8C8360B83D233DF3 ====

Код:

AUDIOCHECKER v2.0 beta (build 457) - by Dester - opdester@freemail.hu
~~~~~~~~~~~~~~~~~~~~~~~~~~~~~~~~~~

Started at: понедельник, 21. 01. 2013. - 16:51.39
5 files found

1 -===- Z:\[HD]\- [Base House] [VA & CDM]\[Синглы]\[Flac] JKB - Ibiza (How are u) (Maxi, CD) 2000\(2000) (single) (03) [JKB] - Ibiza (How are u) (DJ Trooper vs. Bonito Julio Mix).wav
  Conclusion: this track is CDDA with probability 99%

2 -===- Z:\[HD]\- [Base House] [VA & CDM]\[Синглы]\[Flac] JKB - Ibiza (How are u) (Maxi, CD) 2000\(2000) (single) (04) [JKB] - Ibiza (How are u) (Central Seven Club Mix).wav
  Conclusion: this track is CDDA with probability 100%

3 -===- Z:\[HD]\- [Base House] [VA & CDM]\[Синглы]\[Flac] JKB - Ibiza (How are u) (Maxi, CD) 2000\(2000) (single) (05) [JKB] - Ibiza (How are u) (Sam-Pling Club Mix).wav
  Conclusion: this track is CDDA with probability 100%

4 -===- Z:\[HD]\- [Base House] [VA & CDM]\[Синглы]\[Flac] JKB - Ibiza (How are u) (Maxi, CD) 2000\(2000) (single) (01) [JKB] - Ibiza (How are u) (Central Seven Radio Mix).wav
  Conclusion: this track is CDDA with probability 100%

5 -===- Z:\[HD]\- [Base House] [VA & CDM]\[Синглы]\[Flac] JKB - Ibiza (How are u) (Maxi, CD) 2000\(2000) (single) (02) [JKB] - Ibiza (How are u) (K.K. Project Killer Mix).wav
  Conclusion: this track is CDDA with probability 100%

Finished at: понедельник, 21. 01. 2013. - 16:56.00 (operation time: 0:04.21)

thanks you friend

Страница 1 из 1

new_topic  reply_topic

Текущее время: 20-Сен 02:30
Часовой пояс: GMT + 4

m Сделано с любовью PR-CY.ru Каталог webplus.info