Вход на сайт

Имя:
Пароль:

· Забыли пароль?
logo
Портал Форум
Регистрация Вход


new_topic  reply_topic

  (Club House, Hard House) De-Vize ‎– Activate Your Energy 1998, Maxi-CD, WAV (tracks + .cue), lossless

pic
Год выпуска: 1998
Страна: Germany
Жанр: Club House, Hard House
Номер #: House Nation - HN 202
Тип издания: сингл
Аудио кодек: WAV
Тип рипа: (tracks + .cue)
Битрейт аудио: lossless

Треклист:

01) Activate Your Energy (Radio Mix)
02) Activate Your Energy (Club Mix Edit)
03) Activate Your Energy (Extended Radio)
04) Activate Your Energy (Club Mix)


Доп. информация:
_______________________________________________
http://www.discogs.com/De-Vize-Activate-Your-Energy/release/656093

Код:

Exact Audio Copy V1.0 beta 3 from 29. August 2011

Отчёт EAC об извлечении, выполненном 20. января 2013, 18:52

De-Vize / Activate Your Energy

Дисковод: Optiarc DVD+-RW AD-7560S   Adapter: 1  ID: 0

Режим чтения                 : Достоверность
Использование точного потока : Да
Отключение кэша аудио        : Да
Использование указателей C2  : Нет

Коррекция смещения при чтении                     : 6
Способность читать области Lead-in и Lead-out     : Нет
Заполнение пропущенных сэмплов тишиной            : Да
Удаление блоков с тишиной в начале и конце        : Нет
При вычислениях CRC использовались нулевые сэмплы : Да
Интерфейс                                         : Встроенный Win32-интерфейс для Win NT/2000
Обработка зазоров                                 : Добавлено к предыдущему треку

Выходной формат : Внутренние WAV-операции
Формат сэмплов  : 44.100 Гц; 16 бит; стерео

TOC извлечённого CD

     Трек |   Старт  | Длительность | Начальный сектор | Конечный сектор
    ---------------------------------------------------------------------
       1  |  0:00.00 |    3:16.17   |           0      |      14716     
       2  |  3:16.17 |    3:39.40   |       14717      |      31181     
       3  |  6:55.57 |    4:53.07   |       31182      |      53163     
       4  | 11:48.64 |    5:05.63   |       53164      |      76101     

Трек  1

     Имя файла Z:\[HD]\- [Base House] [VA & CDM]\[Синглы]\[Flac] De-Vize - Activate Your Energy (Maxi, CD) 1998\01 Activate Your Energy (radio mix).wav

     Длина предзазора  0:00:02.00

     Пиковый уровень 100.0 %
     Скорость извлечения 2.0 X
     Качество трека 99.9 %
     CRC теста B4213F39
     CRC копии B4213F39
     Трек не обнаружен в базе AccurateRip
     Копирование... OK

Трек  2

     Имя файла Z:\[HD]\- [Base House] [VA & CDM]\[Синглы]\[Flac] De-Vize - Activate Your Energy (Maxi, CD) 1998\02 Activate Your Energy (club mix edit).wav

     Длина предзазора  0:00:01.47

     Пиковый уровень 98.4 %
     Скорость извлечения 2.8 X
     Качество трека 100.0 %
     CRC теста 6B1F2AAD
     CRC копии 6B1F2AAD
     Трек не обнаружен в базе AccurateRip
     Копирование... OK

Трек  3

     Имя файла Z:\[HD]\- [Base House] [VA & CDM]\[Синглы]\[Flac] De-Vize - Activate Your Energy (Maxi, CD) 1998\03 Activate Your Energy (extended radio).wav

     Длина предзазора  0:00:01.57

     Пиковый уровень 100.0 %
     Скорость извлечения 3.2 X
     Качество трека 100.0 %
     CRC теста 06EF7462
     CRC копии 06EF7462
     Трек не обнаружен в базе AccurateRip
     Копирование... OK

Трек  4

     Имя файла Z:\[HD]\- [Base House] [VA & CDM]\[Синглы]\[Flac] De-Vize - Activate Your Energy (Maxi, CD) 1998\04 Activate Your Energy (club mix).wav

     Пиковый уровень 98.2 %
     Скорость извлечения 3.5 X
     Качество трека 100.0 %
     CRC теста 843B0425
     CRC копии 843B0425
     Трек не обнаружен в базе AccurateRip
     Копирование... OK

Ни одного трека нет в базе AccurateRip

Ошибок не произошло

Конец отчёта

---- CUETools DB Plugin V2.1.3

[CTDB TOCID: piT_smqYO2ukt9a6HJMdktICa94-] disk not present in database, Submit result: piT_smqYO2ukt9a6HJMdktICa94- has been uploaded

==== Контрольная сумма отчёта C8676E8A036AF0ECB15B06D9522D839828142E2C8D90C5E9EDD0E4BED0205065 ====

Код:

AUDIOCHECKER v2.0 beta (build 457) - by Dester - opdester@freemail.hu
~~~~~~~~~~~~~~~~~~~~~~~~~~~~~~~~~~

Started at: понедельник, 21. 01. 2013. - 18:36.12
4 files found

1 -===- Z:\[HD]\- [Base House] [VA & CDM]\[Синглы]\[Flac] De-Vize - Activate Your Energy (Maxi, CD) 1998\(1998) (single) (02) [De-Vize] - Activate Your Energy (club mix edit).wav
  Conclusion: this track is CDDA with probability 99%

2 -===- Z:\[HD]\- [Base House] [VA & CDM]\[Синглы]\[Flac] De-Vize - Activate Your Energy (Maxi, CD) 1998\(1998) (single) (03) [De-Vize] - Activate Your Energy (extended radio mix).wav
  Conclusion: this track is CDDA with probability 100%

3 -===- Z:\[HD]\- [Base House] [VA & CDM]\[Синглы]\[Flac] De-Vize - Activate Your Energy (Maxi, CD) 1998\(1998) (single) (04) [De-Vize] - Activate Your Energy (club mix).wav
  Conclusion: this track is CDDA with probability 100%

4 -===- Z:\[HD]\- [Base House] [VA & CDM]\[Синглы]\[Flac] De-Vize - Activate Your Energy (Maxi, CD) 1998\(1998) (single) (01) [De-Vize] - Activate Your Energy (radio mix).wav
  Conclusion: this track is CDDA with probability 100%

Finished at: понедельник, 21. 01. 2013. - 18:39.01 (operation time: 0:02.48)

Мне бы очень хотелось, чтобы вы могли поделиться мной, пожалуйста, этот cd maxi был бы очень благодарен,

мой адрес: joao44285599@gmail.com

Страница 1 из 1

new_topic  reply_topic

Текущее время: 16-Дек 04:49
Часовой пояс: GMT + 4

m Сделано с любовью PR-CY.ru Каталог webplus.info