Вход на сайт

Имя:
Пароль:

· Забыли пароль?
logo
Портал Форум
Регистрация Вход


new_topic  reply_topic

  (Pop / Dance) Various - Танцевальный Рай 9 2000, FLAC (image + .cue), lossless

pic
Год выпуска: 2000
Страна: Россия
Жанр: Pop / Dance
Номер #: LP-063-00 [Танцевальный рай]
Продолжительность: 70 минут

Тип издания: сборник
Аудио кодек: FLAC
Тип рипа: (image + .cue)
Битрейт аудио: lossless

Треклист:

1. Shaft - Mambo Italiano
2. Britney Spears - Born To Make You Happy
3. DJ Mendez - Razor Tongue
4. French Affair - My Heart Goes Boom (la di da da)
5. Five - Don't Wanna Let You Go
6. Masterboy - I Like To Like It
7. Modern Talking feat.E.Singleton - China In Her Eyes
8. Backstreet Boys - Show Me The Meaning Of Being Lonely
9. Vengaboys - Kiss (Whe The Sun Don't Sunshine)
10. Lou Bega - Tricky, Tricky
11. Bloodhound Gang - The Bad Touch
12. E-Rotic - Queen Of Light
13. Me & My - Let The Love Go On
14. Aqua - Cartoon Heroes
15. Tarkan - Bu Gece (Kir Zincirlerini)
16. Touche - Dinner In Heaven
17. Ace Of Base - Love In December
18. Belinda Carlisle - All God's Children
19. Boney M. 2000 - Sunny
20. Sandra - Secret Land

Код:

Exact Audio Copy V1.0 beta 3 from 29. August 2011

Отчёт EAC об извлечении, выполненном 21. января 2013, 20:07

Various Artists / 9

Дисковод: ASUS    DRW-1814BL   Adapter: 1  ID: 1

Режим чтения                 : Достоверность
Использование точного потока : Да
Отключение кэша аудио        : Нет
Использование указателей C2  : Да

Коррекция смещения при чтении                     : 6
Способность читать области Lead-in и Lead-out     : Нет
Заполнение пропущенных сэмплов тишиной            : Да
Удаление блоков с тишиной в начале и конце        : Нет
При вычислениях CRC использовались нулевые сэмплы : Да
Интерфейс                                         : Встроенный Win32-интерфейс для Win NT/2000

Выходной формат : Внутренние WAV-операции
Формат сэмплов  : 44.100 Гц; 16 бит; стерео

TOC извлечённого CD

     Трек |   Старт  | Длительность | Начальный сектор | Конечный сектор
    ---------------------------------------------------------------------
       1  |  0:00.00 |    2:47.52   |           0      |      12576     
       2  |  2:47.52 |    3:30.62   |       12577      |      28388     
       3  |  6:18.39 |    3:29.52   |       28389      |      44115     
       4  |  9:48.16 |    3:30.38   |       44116      |      59903     
       5  | 13:18.54 |    3:27.45   |       59904      |      75473     
       6  | 16:46.24 |    3:35.62   |       75474      |      91660     
       7  | 20:22.11 |    3:06.50   |       91661      |     105660     
       8  | 23:28.61 |    3:50.38   |      105661      |     122948     
       9  | 27:19.24 |    3:29.49   |      122949      |     138672     
      10  | 30:48.73 |    3:27.02   |      138673      |     154199     
      11  | 34:16.00 |    4:08.22   |      154200      |     172821     
      12  | 38:24.22 |    3:47.34   |      172822      |     189880     
      13  | 42:11.56 |    3:51.57   |      189881      |     207262     
      14  | 46:03.38 |    3:35.30   |      207263      |     223417     
      15  | 49:38.68 |    3:39.57   |      223418      |     239899     
      16  | 53:18.50 |    2:45.33   |      239900      |     252307     
      17  | 56:04.08 |    3:26.72   |      252308      |     267829     
      18  | 59:31.05 |    3:38.51   |      267830      |     284230     
      19  | 63:09.56 |    3:30.08   |      284231      |     299988     
      20  | 66:39.64 |    3:20.51   |      299989      |     315039     

Характеристики диапазона извлечения и сообщения об ошибках

Выбранный диапазон

     Имя файла E:\Temp\tanc-ray9-2000\Various Artists - 9.wav

     Пиковый уровень 99.9 %
     Скорость извлечения 22.4 X
     Качество диапазона 100.0 %
     CRC теста BB38FC14
     CRC копии BB38FC14
     Копирование... OK

Ошибок не произошло

Конец отчёта

---- CUETools DB Plugin V2.1.3

[CTDB TOCID: kBsimd4wDoA9BDpQkF8okjIQKjA-] disk not present in database, Submit result: kBsimd4wDoA9BDpQkF8okjIQKjA- has been uploaded

Страница 1 из 1

new_topic  reply_topic

Текущее время: 25-Янв 11:39
Часовой пояс: GMT + 4

m Сделано с любовью PR-CY.ru Каталог webplus.info