Вход на сайт

Имя:
Пароль:

· Забыли пароль?
logo
Портал Форум
Регистрация Вход


new_topic  reply_topic

  (Pop, Dance) Hitti Buumi 8 - 1996, FLAC (image + .cue) lossless

pic
Год выпуска: 1996
Производитель: Финляндия
Жанр: Pop, Dance, Euro House, Trance
Номер #: 74321 408092 (BMG Finland Oy)
Продолжительность: 1:13:56

Тип издания: сборник
Аудио кодек: FLAC
Тип рипа: (image + .cue)
Битрейт аудио: lossless

Треклист:

  1. Los Del Rio – Macarena
  2. E-Rotic – Fritz Love My Tits
  3. Dune – Hand In Hand
  4. Backstreet Boys – Get Down (You're The One For Me)
  5. Garden Eden – Lemon Tree
  6. No Mercy – Where Do You Go
  7. U96 – A Night To Remember
  8. Captain Jack – Drill Instructor
  9. Robert Miles – Children
  10. Eros Ramazzotti – Piu Bella Cosa
  11. Snap – The Power Remix '96
  12. Peter Andre – Mysterious Girl
  13. Basic Element – Rule The World
  14. Ice MC – Give Me The Light
  15. Ann Bell Fell – We Come We Go
  16. Captain Hollywood – Love And Pain
  17. DJ Dado – Metropolis
  18. Robin Cook – I Won't Let The Sun Go Down On Me

Код:

Exact Audio Copy V0.99 prebeta 5 from 4. May 2009

Отчёт EAC об извлечении, выполненном 17. января 2013, 22:18

Various / Hitti Buumi 8

Дисковод: TSSTcorpCDDVDW SH-S223B   Adapter: 2  ID: 0

Режим чтения                 : Достоверность
Использование точного потока : Да
Отключение кэша аудио        : Да
Использование указателей C2  : Нет

Коррекция смещения при чтении                     : 6
Способность читать области Lead-in и Lead-out     : Нет
Заполнение пропущенных сэмплов тишиной            : Да
Удаление блоков с тишиной в начале и конце        : Нет
При вычислениях CRC использовались нулевые сэмплы : Да
Интерфейс                                         : Встроенный Win32-интерфейс для Win NT/2000

Выходной формат : Внутренние WAV-операции
Формат сэмплов  : 44.100 Гц; 16 бит; стерео

TOC извлечённого CD

     Трек |   Старт  | Длительность | Начальный сектор | Конечный сектор
    ---------------------------------------------------------------------
       1  |  0:00.00 |    3:44.35   |           0      |      16834     
       2  |  3:44.35 |    4:09.25   |       16835      |      35534     
       3  |  7:53.60 |    3:47.20   |       35535      |      52579     
       4  | 11:41.05 |    3:52.15   |       52580      |      69994     
       5  | 15:33.20 |    3:54.50   |       69995      |      87594     
       6  | 19:27.70 |    4:32.50   |       87595      |     108044     
       7  | 24:00.45 |    5:10.15   |      108045      |     131309     
       8  | 29:10.60 |    4:13.60   |      131310      |     150344     
       9  | 33:24.45 |    4:04.55   |      150345      |     168699     
      10  | 37:29.25 |    4:29.10   |      168700      |     188884     
      11  | 41:58.35 |    3:54.40   |      188885      |     206474     
      12  | 45:53.00 |    3:38.00   |      206475      |     222824     
      13  | 49:31.00 |    4:04.20   |      222825      |     241144     
      14  | 53:35.20 |    3:52.20   |      241145      |     258564     
      15  | 57:27.40 |    3:50.40   |      258565      |     275854     
      16  | 61:18.05 |    3:40.00   |      275855      |     292354     
      17  | 64:58.05 |    4:21.05   |      292355      |     311934     
      18  | 69:19.10 |    3:03.45   |      311935      |     325704     

Характеристики диапазона извлечения и сообщения об ошибках

Выбранный диапазон

     Имя файла K:\Зарубежные сборники\Hitti Buumi 8 (1996)\Hitti Buumi 8.wav

     Пиковый уровень 100.0 %
     Качество диапазона 99.9 %
     CRC теста C95CA7EF
     CRC копии C95CA7EF
     Копирование... OK

Ошибок не произошло

 
AccurateRip: сводка
 
Трек  1  нет в базе данных
Трек  2  нет в базе данных
Трек  3  нет в базе данных
Трек  4  нет в базе данных
Трек  5  нет в базе данных
Трек  6  нет в базе данных
Трек  7  нет в базе данных
Трек  8  нет в базе данных
Трек  9  нет в базе данных
Трек 10  нет в базе данных
Трек 11  нет в базе данных
Трек 12  нет в базе данных
Трек 13  нет в базе данных
Трек 14  нет в базе данных
Трек 15  нет в базе данных
Трек 16  нет в базе данных
Трек 17  нет в базе данных
Трек 18  нет в базе данных
 
Ни одного трека нет в базе AccurateRip

Конец отчёта
Отличная подборка хитов 90-х, не нуждающихся в представлении. Всем меломанам настоятельно рекомендуется к скачиванию

Страница 1 из 1

new_topic  reply_topic

Текущее время: 25-Янв 11:15
Часовой пояс: GMT + 4

m Сделано с любовью PR-CY.ru Каталог webplus.info