Вход на сайт

Имя:
Пароль:

· Забыли пароль?
logo
Портал Форум
Регистрация Вход


new_topic  reply_topic

  (Euro House) Various - Последняя вечеринка на Титанике vol. 2 1998, FLAC (image + .cue), lossless

pic
Год выпуска: 1998
Страна: Россия
Производитель: Студия "СОЮЗ" из Серии Танцевальный Рай
Жанр: Euro House
Номер #: SZUK 1030-3 (DCM Sweden)
Продолжительность: ~ 63 мин.

Тип издания: сборник
Аудио кодек: FLAC
Тип рипа: (image + .cue)
Битрейт аудио: lossless


Треклист:

01. Object One - Emergency (Groove Maniax Mix)
02. Magic Motion - Show Me Heaven
03. In Vain - I Don't Wanna Lose You (Radio Edit)
04. Boomboy - Boombyebyeboy (Ring The Bell Radio Edit)
05. Addams & Gee feat. Antonia Lucas - Joy & Pain (Original)
06. Mistique - So Sexy (Radio Edit)
07. Metro 7 - Take Me In Your Arms
08. The Legend - One Headlight (Radio Edit)
09. Natalie Browne - Torn (7" Mix)
10. Pandera - I Love You Baby (Radio Mix)
11. Human Rights - Never (Original Club Mix)
12. Charge - Are You Ready For Love?
13. Indigo - Perfect Day (7" Mix)
14. Double Head - Tell Me On (Energic Melody Mix)

Код:

Exact Audio Copy V1.0 beta 3 from 29. August 2011

EAC extraction logfile from 9. January 2013, 18:08

Various / Last Party on the Titanic 2

Used drive  : MATSHITADVD-RAM UJ-841S   Adapter: 2  ID: 0

Read mode               : Secure
Utilize accurate stream : Yes
Defeat audio cache      : Yes
Make use of C2 pointers : No

Read offset correction                      : 102
Overread into Lead-In and Lead-Out          : No
Fill up missing offset samples with silence : Yes
Delete leading and trailing silent blocks   : No
Null samples used in CRC calculations       : Yes
Used interface                              : Installed external ASPI interface

Used output format : Internal WAV Routines
Sample format      : 44.100 Hz; 16 Bit; Stereo

TOC of the extracted CD

     Track |   Start  |  Length  | Start sector | End sector
    ---------------------------------------------------------
        1  |  0:00.10 |  6:22.12 |        10    |    28671   
        2  |  6:22.22 |  3:29.28 |     28672    |    44374   
        3  |  9:51.50 |  4:15.17 |     44375    |    63516   
        4  | 14:06.67 |  4:08.08 |     63517    |    82124   
        5  | 18:15.00 |  3:39.50 |     82125    |    98599   
        6  | 21:54.50 |  3:45.35 |     98600    |   115509   
        7  | 25:40.10 |  6:21.67 |    115510    |   144151   
        8  | 32:02.02 |  4:12.30 |    144152    |   163081   
        9  | 36:14.32 |  3:36.48 |    163082    |   179329   
       10  | 39:51.05 |  3:40.70 |    179330    |   195899   
       11  | 43:32.00 |  5:32.10 |    195900    |   220809   
       12  | 49:04.10 |  3:55.50 |    220810    |   238484   
       13  | 52:59.60 |  4:08.65 |    238485    |   257149   
       14  | 57:08.50 |  6:19.10 |    257150    |   285584   

Range status and errors

Selected range

     Filename E:\stratos\Imiges\Various - Last Party on the Titanic 2.wav

     Peak level 99.9 %
     Extraction speed 1.2 X
     Range quality 99.9 %
     Test CRC 05C634FF
     Copy CRC 05C634FF
     Copy OK

No errors occurred

 
AccurateRip summary
 
Track  1  not present in database
Track  2  not present in database
Track  3  not present in database
Track  4  not present in database
Track  5  not present in database
Track  6  not present in database
Track  7  not present in database
Track  8  not present in database
Track  9  not present in database
Track 10  not present in database
Track 11  not present in database
Track 12  not present in database
Track 13  not present in database
Track 14  not present in database
 
None of the tracks are present in the AccurateRip database

End of status report

==== Log checksum BEE13E61D9F68FE87C1949F2D1CE47E3964D10FA839A0E3FDBB88B6F8A5FF563 ====

Страница 1 из 1

new_topic  reply_topic

Текущее время: 25-Янв 11:25
Часовой пояс: GMT + 4

m Сделано с любовью PR-CY.ru Каталог webplus.info