Вход на сайт

Имя:
Пароль:

· Забыли пароль?
logo
Портал Форум
Регистрация Вход


new_topic  reply_topic

  (Pop) Various - DJ HITS vol.161 1996, FLAC (image + .cue), lossless

pic
Год выпуска: 1996
Страна: Болгария
Лейбл: Noname
Каталожный номер:KJF-31-867 \ DWOA 9611 C
Жанр: Pop
Длительность: 1:12:08
Аудио кодек: FLAC
Тип рипа: (image + .cue)
Битрейт аудио: lossless

Треклист:

1. Robert Miles - One And One
2. Black Box - Native New Yorker
3. DJ Bobo - Pray
4. Charly Lownoise & Menthal Theo - Hardcore Feelings
5. Scooter - I'am Raving
6. Gusto - Let's All Chant
7. Warren G feat. Adina Howard - What's Love Got To Do With It
8. En Vogue - Don't Let Go
9. Inner Circle - Playboy
10. RMB - Reality
11. Paradisio - Bailando
12. Backstreet Boys - Quit Playin' Games
13. Clock - Oh. What A Night
14. Groove Theory - Tell Me
15. Blackstreet feat. Dr. Dre - No Diggity
16. Spice Girls - Say You'll Be There
17. Hystery Ego - Want Love
18. Braids - Bohemian Rhapsody
19. Captain Jack - Little Boy

Код:

Exact Audio Copy V1.0 beta 1 from 15. November 2010

Отчёт EAC об извлечении, выполненном 27. февраля 2013, 21:38

Various / DJ Hits 161

Дисковод: ASUS    DRW-24B1LT   Adapter: 1  ID: 0

Режим чтения                 : Достоверность
Использование точного потока : Да
Отключение кэша аудио        : Да
Использование указателей C2  : Нет

Коррекция смещения при чтении                     : 6
Способность читать области Lead-in и Lead-out     : Нет
Заполнение пропущенных сэмплов тишиной            : Да
Удаление блоков с тишиной в начале и конце        : Нет
При вычислениях CRC использовались нулевые сэмплы : Да
Интерфейс                                         : Встроенный Win32-интерфейс для Win NT/2000

Выходной формат : Внутренние WAV-операции
Формат сэмплов  : 44.100 Гц; 16 бит; стерео

TOC извлечённого CD

     Трек |   Старт  | Длительность | Начальный сектор | Конечный сектор
    ---------------------------------------------------------------------
       1  |  0:00.00 |    4:01.05   |           0      |      18079     
       2  |  4:01.05 |    3:36.33   |       18080      |      34312     
       3  |  7:37.38 |    3:52.45   |       34313      |      51757     
       4  | 11:30.08 |    3:46.18   |       51758      |      68725     
       5  | 15:16.26 |    3:36.65   |       68726      |      84990     
       6  | 18:53.16 |    3:39.74   |       84991      |     101489     
       7  | 22:33.15 |    4:15.65   |      101490      |     120679     
       8  | 26:49.05 |    3:51.19   |      120680      |     138023     
       9  | 30:40.24 |    3:16.30   |      138024      |     152753     
      10  | 33:56.54 |    3:54.12   |      152754      |     170315     
      11  | 37:50.66 |    3:48.44   |      170316      |     187459     
      12  | 41:39.35 |    3:54.06   |      187460      |     205015     
      13  | 45:33.41 |    3:27.43   |      205016      |     220583     
      14  | 49:01.09 |    3:50.70   |      220584      |     237903     
      15  | 52:52.04 |    4:38.23   |      237904      |     258776     
      16  | 57:30.27 |    3:54.25   |      258777      |     276351     
      17  | 61:24.52 |    3:21.23   |      276352      |     291449     
      18  | 64:46.00 |    3:59.11   |      291450      |     309385     
      19  | 68:45.11 |    3:22.27   |      309386      |     324562     

Характеристики диапазона извлечения и сообщения об ошибках

Выбранный диапазон

     Имя файла T:\Wave\VA - DJ Hits 161\DJ Hits 161.wav

     Пиковый уровень 100.0 %
0.2 X
     Качество диапазона 100.0 %
     CRC теста FBC64168
     CRC копии FBC64168
     Копирование... OK

Ошибок не произошло

Конец отчёта

====  9873A373A0429C9333BA6A05C383FD9B1111D6C187D00CD05DED55E37D3B7302 ====

Страница 1 из 1

new_topic  reply_topic

Текущее время: 25-Янв 10:23
Часовой пояс: GMT + 4

m Сделано с любовью PR-CY.ru Каталог webplus.info