Вход на сайт

Имя:
Пароль:

· Забыли пароль?
logo
Портал Форум
Регистрация Вход


new_topic  reply_topic

  (Synthpop, Futurepop) Syrian - Death of a Sun - 2013, FLAC (image + .cue) lossless

pic
Год выпуска: 2013
Страна: Италия
Производитель: Германия
Жанр: Synthpop, Futurepop, SpaceSynth, Italo-Disco, New wave
Номер #: FACT 3229 (Infacted Recordings)
Продолжительность: 0:54:49

Тип контента: альбом
Аудио кодек: FLAC
Тип рипа: (image + .cue)
Битрейт аудио: lossless

Треклист:

  1. We Fade Away
  2. Runner In The Night
  3. Dreaming
  4. Walk Into The Sun
  5. Fire In Your Eyes
  6. Stratosphere
  7. Ninja Warrior
  8. Son Of The Sky
  9. In The End
  10. Nuvole
  11. Fire In Your Eyes (Midnight Resistance Remix)
  12. Fire In Your Eyes (Reaktivz Remix)
  13. Fire In Your Eyes (Endanger Remix)
  14. Runner In The Night (Original Demo)

Код:

Exact Audio Copy V0.99 prebeta 5 from 4. May 2009

Отчёт EAC об извлечении, выполненном 26. июля 2013, 20:28

Syrian / Death of a Sun

Дисковод: TSSTcorpCDDVDW SH-S223B   Adapter: 4  ID: 2

Режим чтения                 : Достоверность
Использование точного потока : Да
Отключение кэша аудио        : Да
Использование указателей C2  : Нет

Коррекция смещения при чтении                     : 6
Способность читать области Lead-in и Lead-out     : Нет
Заполнение пропущенных сэмплов тишиной            : Да
Удаление блоков с тишиной в начале и конце        : Нет
При вычислениях CRC использовались нулевые сэмплы : Да
Интерфейс                                         : Встроенный Win32-интерфейс для Win NT/2000

Выходной формат : Внутренние WAV-операции
Формат сэмплов  : 44.100 Гц; 16 бит; стерео

TOC извлечённого CD

     Трек |   Старт  | Длительность | Начальный сектор | Конечный сектор
    ---------------------------------------------------------------------
       1  |  0:00.00 |    4:05.16   |           0      |      18390     
       2  |  4:05.16 |    4:34.12   |       18391      |      38952     
       3  |  8:39.28 |    3:57.26   |       38953      |      56753     
       4  | 12:36.54 |    3:34.28   |       56754      |      72831     
       5  | 16:11.07 |    4:20.52   |       72832      |      92383     
       6  | 20:31.59 |    3:10.16   |       92384      |     106649     
       7  | 23:42.00 |    3:17.45   |      106650      |     121469     
       8  | 26:59.45 |    3:55.45   |      121470      |     139139     
       9  | 30:55.15 |    5:32.24   |      139140      |     164063     
      10  | 36:27.39 |    2:14.00   |      164064      |     174113     
      11  | 38:41.39 |    4:51.13   |      174114      |     195951     
      12  | 43:32.52 |    4:40.46   |      195952      |     216997     
      13  | 48:13.23 |    3:49.09   |      216998      |     234181     
      14  | 52:02.32 |    2:46.48   |      234182      |     246679     

Характеристики диапазона извлечения и сообщения об ошибках

Выбранный диапазон

     Имя файла K:\Электронная\Syrian (lossless)\Syrian - Death of a Sun (2013)\Syrian - Death of a Sun.wav

     Пиковый уровень 100.0 %
     Качество диапазона 100.0 %
     CRC теста C36E46D8
     CRC копии C36E46D8
     Копирование... OK

Ошибок не произошло

 
AccurateRip: сводка
 
Трек  1  нет в базе данных
Трек  2  нет в базе данных
Трек  3  нет в базе данных
Трек  4  нет в базе данных
Трек  5  нет в базе данных
Трек  6  нет в базе данных
Трек  7  нет в базе данных
Трек  8  нет в базе данных
Трек  9  нет в базе данных
Трек 10  нет в базе данных
Трек 11  нет в базе данных
Трек 12  нет в базе данных
Трек 13  нет в базе данных
Трек 14  нет в базе данных
 
Ни одного трека нет в базе AccurateRip

Конец отчёта
dimassamid как новинка? Хорошо подходит для релакса?
Альбом довольно разнообразный, имеются как танцевальные клубные треки (напр. Fire In Your Eyes), так и романтические медляки (напр. Walk Into The Sun). Вообщем это нужно слушать, втыкай наушники в телефон и врубай ютуб
Предыдущий альбом сильнее был, как мне кажетца.

Страница 1 из 1

new_topic  reply_topic

Текущее время: 20-Июн 00:06
Часовой пояс: GMT + 4

m Сделано с любовью PR-CY.ru Каталог webplus.info