Вход на сайт

Имя:
Пароль:

· Забыли пароль?
logo
Портал Форум
Регистрация Вход


new_topic  reply_topic

  (Pop) Various - Танцевальный рай 28 2011, FLAC (image + .cue), lossless

pic
Год выпуска: 2011
Страна: Россия
Производитель: Танцевальный рай / Студия Союз
Жанр: Pop
Номер #: ТР-817
Продолжительность: 79 мин.

Тип издания: сборник
Аудио кодек: FLAC
Тип рипа: (image + .cue)
Битрейт аудио: lossless

Треклист:

01. Dev - In The Dark
02. Marlon Roudette - New Age
03. Avicii - Fade Into Darkness (Radio Mix)
04. Maroon 5 feat. Christina Aguilera - Moves Like Jagger
05. PH Electro - Stereo Mexico (Orginal Radio Edit Master)
06. Heaven feat. Glance - Sexy Girl
07. Christopher S feat. Max Urban - Star (Radio Edit)
08. DJ Antoine vs Timati feat. Kalenna - Welcome To St. Tropez (DJ Antoine vs Mad Mark Radio Edit)
09. R.I.O. feat. U-Jean - Turn This Club Around (Video Edit)
10. Junior Caldera feat. Jack Strify - (It is) Blasphemy
11. Belmond & Parker - Mad World (Edit Mix)
12. Renoir - Sky (Alternative Version)
13. Andrea Morph Feat. Dave & Monique - Electro Love (Radio Edit)
14. TrikoTrako - Una TrikoTrako (Radio Edit)
15. Chico & Tom feat. Lee - Where Do You Go (Radio Edit)
16. Felix Leiter - Sky High (Radio Edit)
17. HouseMaxx Project - Let The Music Play 2011 (Radio Edit)
18. Nick Austin - All My Life (Radio Edit)
19. Scotty - Sundown (Radio Edit)
20. Simon from Deep Divas feat. Goody - Disco Dancer (Simon Original Radio Mix)
21. Vanessa & Marcko - Oh Lala (Radio Edit)
22. Cameron feat. Khaled - Henna (Original Version)
23. Matt`s Mattara feat. Rockman - Opera (ATTACK Radio)


Доп. информация: Оригинал

Код:

Exact Audio Copy V1.0 beta 3 from 29. August 2011

EAC extraction logfile from 8. February 2013, 18:17

Various / Танцевальный Рай 28

Used drive  : MATSHITADVD-RAM UJ-841S   Adapter: 2  ID: 0

Read mode               : Secure
Utilize accurate stream : Yes
Defeat audio cache      : Yes
Make use of C2 pointers : No

Read offset correction                      : 102
Overread into Lead-In and Lead-Out          : No
Fill up missing offset samples with silence : Yes
Delete leading and trailing silent blocks   : No
Null samples used in CRC calculations       : Yes
Used interface                              : Installed external ASPI interface

Used output format : Internal WAV Routines
Sample format      : 44.100 Hz; 16 Bit; Stereo

TOC of the extracted CD

     Track |   Start  |  Length  | Start sector | End sector
    ---------------------------------------------------------
        1  |  0:00.00 |  3:48.41 |         0    |    17140   
        2  |  3:48.41 |  3:31.37 |     17141    |    33002   
        3  |  7:20.03 |  3:18.45 |     33003    |    47897   
        4  | 10:38.48 |  3:23.18 |     47898    |    63140   
        5  | 14:01.66 |  3:09.39 |     63141    |    77354   
        6  | 17:11.30 |  3:22.72 |     77355    |    92576   
        7  | 20:34.27 |  3:03.43 |     92577    |   106344   
        8  | 23:37.70 |  3:17.15 |    106345    |   121134   
        9  | 26:55.10 |  3:21.45 |    121135    |   136254   
       10  | 30:16.55 |  3:18.59 |    136255    |   151163   
       11  | 33:35.39 |  3:50.38 |    151164    |   168451   
       12  | 37:26.02 |  3:23.17 |    168452    |   183693   
       13  | 40:49.19 |  3:57.31 |    183694    |   201499   
       14  | 44:46.50 |  3:26.16 |    201500    |   216965   
       15  | 48:12.66 |  3:49.55 |    216966    |   234195   
       16  | 52:02.46 |  2:54.72 |    234196    |   247317   
       17  | 54:57.43 |  3:52.00 |    247318    |   264717   
       18  | 58:49.43 |  3:50.32 |    264718    |   281999   
       19  | 62:40.00 |  3:54.41 |    282000    |   299590   
       20  | 66:34.41 |  2:52.67 |    299591    |   312557   
       21  | 69:27.33 |  3:09.03 |    312558    |   326735   
       22  | 72:36.36 |  3:14.32 |    326736    |   341317   
       23  | 75:50.68 |  3:43.03 |    341318    |   358045   

Range status and errors

Selected range

     Filename E:\stratos\Imiges\Various - Танцевальный Рай 28.wav

     Peak level 100.0 %
     Extraction speed 2.7 X
     Range quality 100.0 %
     Test CRC 0174D677
     Copy CRC 0174D677
     Copy OK

No errors occurred

 
AccurateRip summary
 
Track  1  not present in database
Track  2  not present in database
Track  3  not present in database
Track  4  not present in database
Track  5  not present in database
Track  6  not present in database
Track  7  not present in database
Track  8  not present in database
Track  9  not present in database
Track 10  not present in database
Track 11  not present in database
Track 12  not present in database
Track 13  not present in database
Track 14  not present in database
Track 15  not present in database
Track 16  not present in database
Track 17  not present in database
Track 18  not present in database
Track 19  not present in database
Track 20  not present in database
Track 21  not present in database
Track 22  not present in database
Track 23  not present in database
 
None of the tracks are present in the AccurateRip database

End of status report

==== Log checksum 66310D33D9A5FB05ABD7F703A9DDABDEACB0958639C2DAA42643C882391D98A1 ====

Страница 1 из 1

new_topic  reply_topic

Текущее время: 25-Янв 11:26
Часовой пояс: GMT + 4

m Сделано с любовью PR-CY.ru Каталог webplus.info