Вход на сайт

Имя:
Пароль:

· Забыли пароль?
logo
Портал Форум
Регистрация Вход


new_topic  reply_topic

  (Speed Garage) Various ‎– Basslines 1998, (CD, Mixed), FLAC (tracks + .cue), lossless

pic
Год выпуска: 1998
Страна: Us
Жанр: Speed Garage
Номер #: Moonshine Music ‎– MM 80084-2
Тип издания: сборник
Аудио кодек: FLAC
Тип рипа: (tracks + .cue)
Битрейт аудио: lossless

Треклист:

01) CJ Bolland – Sugar Is Sweeter (Armand Van Helden Mix)
02) De'Lacy – Hideaway 98 (187 Lockdown Hidden Vocal Dub)
03) Wildcat – Burnin' Up
04) Double 99 – Ripgroove
05) Urban Funk – Ultrafunkula
06) Lisa Stansfield – The Line (Loop Da Loop Gangster House Mix)
07) Boston DJ's – Move Your Body (DJ Jean & Peran Speed Garage Mix)
08) Gisele Jackson – Love Commandments (Loop Da Loop Vocal Mix)
09) Ruff Da Menace – Kick The Party Into Full Effect
10) Mr. Nice Guy – The Bassline
11) Dance Federation, The – New Generation (Ruff Da' Dub Mix)


Доп. информация:
_______________________________________________
http://www.discogs.com/Various-Basslines/release/266561

Код:

Exact Audio Copy V0.99 prebeta 5 from 4. May 2009

EAC extraction logfile from 21. June 2010, 2:17

Various / Basslines

Used drive  : HL-DT-STCDRW/DVD GCC4244   Adapter: 1  ID: 0

Read mode               : Secure
Utilize accurate stream : Yes
Defeat audio cache      : Yes
Make use of C2 pointers : No

Read offset correction                      : 102
Overread into Lead-In and Lead-Out          : No
Fill up missing offset samples with silence : Yes
Delete leading and trailing silent blocks   : No
Null samples used in CRC calculations       : Yes
Used interface                              : Native Win32 interface for Win NT & 2000
Gap handling                                : Appended to previous track

Used output format              : User Defined Encoder
Selected bitrate                : 320 kBit/s
Quality                         : High
Add ID3 tag                     : No
Command line compressor         : C:\Program Files\Exact Audio Copy\FLAC\FLAC.EXE
Additional command line options : -V -8 -T "artist=%a" -T "title=%t" -T "album=%g" -T "date=%y" -T "tracknumber=%n" -T "genre=%m" %s

TOC of the extracted CD

     Track |   Start  |  Length  | Start sector | End sector
    ---------------------------------------------------------
        1  |  0:00.00 |  8:22.74 |         0    |    37723   
        2  |  8:22.74 |  5:57.38 |     37724    |    64536   
        3  | 14:20.37 |  7:26.38 |     64537    |    98024   
        4  | 21:47.00 |  4:58.14 |     98025    |   120388   
        5  | 26:45.14 |  4:41.32 |    120389    |   141495   
        6  | 31:26.46 |  6:06.08 |    141496    |   168953   
        7  | 37:32.54 |  4:32.31 |    168954    |   189384   
        8  | 42:05.10 |  4:26.45 |    189385    |   209379   
        9  | 46:31.55 |  8:09.60 |    209380    |   246114   
       10  | 54:41.40 |  6:06.52 |    246115    |   273616   
       11  | 60:48.17 |  6:00.28 |    273617    |   300644   

Track  1

     Filename D:\FLAC RIPS\01. CJ Bolland Sugar Is Sweeter (Armand Van Helden Mix).wav

     Pre-gap length  0:00:02.00

     Peak level 100.0 %
     Track quality 100.0 %
     Test CRC E096DF14
     Copy CRC E096DF14
     Accurately ripped (confidence 1)  [B10F7121]
     Copy OK

Track  2

     Filename D:\FLAC RIPS\02. De'Lacy Hideaway 98 (187 Lockdown Hidden Vocal Dub).wav

     Peak level 100.0 %
     Track quality 100.0 %
     Test CRC F4B2A359
     Copy CRC F4B2A359
     Accurately ripped (confidence 1)  [08E59369]
     Copy OK

Track  3

     Filename D:\FLAC RIPS\03. Wildcat Burnin' Up.wav

     Peak level 100.0 %
     Track quality 100.0 %
     Test CRC 6F6CC63F
     Copy CRC 6F6CC63F
     Accurately ripped (confidence 1)  [A729D1B7]
     Copy OK

Track  4

     Filename D:\FLAC RIPS\04. Double 99 Ripgroove.wav

     Peak level 100.0 %
     Track quality 99.9 %
     Test CRC F210AFAE
     Copy CRC F210AFAE
     Accurately ripped (confidence 1)  [85D200AA]
     Copy OK

Track  5

     Filename D:\FLAC RIPS\05. Urban Funk Ultrafunkula.wav

     Peak level 100.0 %
     Track quality 100.0 %
     Test CRC 02EE3355
     Copy CRC 02EE3355
     Accurately ripped (confidence 1)  [9A40AF3C]
     Copy OK

Track  6

     Filename D:\FLAC RIPS\06. Lisa Stansfield The Line (Loop Da Loop Gangster House Mix).wav

     Peak level 100.0 %
     Track quality 100.0 %
     Test CRC 8EE3E799
     Copy CRC 8EE3E799
     Accurately ripped (confidence 1)  [4287E775]
     Copy OK

Track  7

     Filename D:\FLAC RIPS\07. Boston DJ's Move Your Body (DJ Jean & Peran Speed Garage Mix).wav

     Peak level 100.0 %
     Track quality 100.0 %
     Test CRC 01D8E5E0
     Copy CRC 01D8E5E0
     Accurately ripped (confidence 1)  [DA938A06]
     Copy OK

Track  8

     Filename D:\FLAC RIPS\08. Gisele Jackson Love Commandments (Loop Da Loop Vocal Mix).wav

     Peak level 100.0 %
     Track quality 100.0 %
     Test CRC 00B15F9A
     Copy CRC 00B15F9A
     Accurately ripped (confidence 1)  [3050D473]
     Copy OK

Track  9

     Filename D:\FLAC RIPS\09. Ruff Da Menace Kick The Party Into Full Effect.wav

     Peak level 100.0 %
     Track quality 99.9 %
     Test CRC E060D26E
     Copy CRC E060D26E
     Accurately ripped (confidence 1)  [12E59A4D]
     Copy OK

Track 10

     Filename D:\FLAC RIPS\10. Mr. Nice Guy The Bassline.wav

     Peak level 100.0 %
     Track quality 100.0 %
     Test CRC 55099EA5
     Copy CRC 55099EA5
     Accurately ripped (confidence 1)  [52E9BD06]
     Copy OK

Track 11

     Filename D:\FLAC RIPS\11. Dance Federation, The New Generation (Ruff Da' Dub Mix).wav

     Peak level 100.0 %
     Track quality 100.0 %
     Test CRC 041F199F
     Copy CRC 041F199F
     Accurately ripped (confidence 1)  [2120BF5F]
     Copy OK

All tracks accurately ripped

No errors occurred

End of status report

Страница 1 из 1

new_topic  reply_topic

Текущее время: 18-Янв 12:12
Часовой пояс: GMT + 4

m Сделано с любовью PR-CY.ru Каталог webplus.info