Вход на сайт

Имя:
Пароль:

· Забыли пароль?
logo
Портал Форум
Регистрация Вход


new_topic  reply_topic

  (House, Trance) K.K. System ‎– Fax U... 1998, (CD, Maxi-Single), WAV (tracks + .cue), lossless

pic
Год выпуска: 1998
Страна: Germany
Жанр: House, Trance
Номер #: House Nation ‎– DST 055- 70358.3
Тип издания: сингл
Аудио кодек: WAV
Тип рипа: (tracks + .cue)
Битрейт аудио: lossless

Треклист:

1 Fax U... (Clubb Single) 3:15
2 Fax U... (Radio Mix) 3:12
3 Fax U... (Clubb Remix) 4:51
4 Fax U... (Original Mix)


Доп. информация:
_______________________________________________
http://www.discogs.com/KK-System-Fax-U/release/1503484

Код:

Exact Audio Copy V1.0 beta 3 from 29. August 2011

Отчёт EAC об извлечении, выполненном 13. августа 2013, 17:55

K.K. System / Fax U...

Дисковод: TSSTcorpBDDVDW SE-506AB   Adapter: 2  ID: 0

Режим чтения                 : Достоверность
Использование точного потока : Да
Отключение кэша аудио        : Да
Использование указателей C2  : Нет

Коррекция смещения при чтении                     : 6
Способность читать области Lead-in и Lead-out     : Нет
Заполнение пропущенных сэмплов тишиной            : Да
Удаление блоков с тишиной в начале и конце        : Нет
При вычислениях CRC использовались нулевые сэмплы : Да
Интерфейс                                         : Встроенный Win32-интерфейс для Win NT/2000
Обработка зазоров                                 : Добавлено к предыдущему треку

Выходной формат : Внутренние WAV-операции
Формат сэмплов  : 44.100 Гц; 16 бит; стерео

TOC извлечённого CD

     Трек |   Старт  | Длительность | Начальный сектор | Конечный сектор
    ---------------------------------------------------------------------
       1  |  0:00.00 |    3:18.57   |           0      |      14906     
       2  |  3:18.57 |    3:13.12   |       14907      |      29393     
       3  |  6:31.69 |    4:52.61   |       29394      |      51354     
       4  | 11:24.55 |    5:05.25   |       51355      |      74254     

Трек  1

     Имя файла Z:\[HD]\- [Base House] [VA & CDM]\[CD-Infinity] - 2\[Flac] K.K. System - Fax U 1998 (cdm)\01 Fax U... (Clubb single).wav

     Длина предзазора  0:00:02.00

     Пиковый уровень 98.0 %
     Скорость извлечения 1.1 X
     Качество трека 100.0 %
     CRC теста 07E866DD
     CRC копии 07E866DD
     Трек не обнаружен в базе AccurateRip
     Копирование... OK

Трек  2

     Имя файла Z:\[HD]\- [Base House] [VA & CDM]\[CD-Infinity] - 2\[Flac] K.K. System - Fax U 1998 (cdm)\02 Fax U... (radio mix).wav

     Длина предзазора  0:00:01.20

     Пиковый уровень 98.0 %
     Скорость извлечения 1.2 X
     Качество трека 100.0 %
     CRC теста BEAF6D8C
     CRC копии BEAF6D8C
     Трек не обнаружен в базе AccurateRip
     Копирование... OK

Трек  3

     Имя файла Z:\[HD]\- [Base House] [VA & CDM]\[CD-Infinity] - 2\[Flac] K.K. System - Fax U 1998 (cdm)\03 Fax U... (Clubb remix).wav

     Длина предзазора  0:00:01.04

     Пиковый уровень 98.0 %
     Скорость извлечения 1.9 X
     Качество трека 99.9 %
     CRC теста F3096EBA
     CRC копии F3096EBA
     Трек не обнаружен в базе AccurateRip
     Копирование... OK

Трек  4

     Имя файла Z:\[HD]\- [Base House] [VA & CDM]\[CD-Infinity] - 2\[Flac] K.K. System - Fax U 1998 (cdm)\04 Fax U... (original mix).wav

     Длина предзазора  0:00:01.10

     Пиковый уровень 98.0 %
     Скорость извлечения 2.5 X
     Качество трека 100.0 %
     CRC теста B5B83592
     CRC копии B5B83592
     Трек не обнаружен в базе AccurateRip
     Копирование... OK

Ни одного трека нет в базе AccurateRip

Ошибок не произошло

Конец отчёта

---- CUETools DB Plugin V2.1.3

[CTDB TOCID: zj_SK.5xyPjoWAbVfZvwSKdaQps-] found, Submit result: zj_SK.5xyPjoWAbVfZvwSKdaQps- has been confirmed
[05e4b494] (1/1) Accurately ripped

==== Контрольная сумма отчёта F8A8D3766F36F63F218F958ECA3400CE86839D77030E9515FA96ACE6CD02B959 ====
- Замиксовал - прикол с дааным треком )) Хотим послушать ?? !Но есть нерномативная лексика )
direx давай анрелиз в студию
Мне бы очень хотелось, чтобы вы могли поделиться мной, пожалуйста, этот cd maxi был бы очень благодарен,

мой адрес: [email protected]
Мне бы очень хотелось, чтобы вы могли поделиться мной, пожалуйста, этот cd maxi был бы очень благодарен,

мой адрес: [email protected]

Страница 1 из 1

new_topic  reply_topic

Текущее время: 29-Ноя 17:51
Часовой пояс: GMT + 4

m Сделано с любовью PR-CY.ru Каталог webplus.info