Вход на сайт

Имя:
Пароль:

· Забыли пароль?
logo
Портал Форум
Регистрация Вход


new_topic  reply_topic

  (Pop) Various - Зимний Хит! vol. 2 1997, FLAC (image + .cue), lossless

pic
Год выпуска: 1997
Страна: Россия
Производитель: RMG
Жанр: Pop
Номер #: 1062-2 (ToCo 941-186-2)
Продолжительность: 60 мин.

Тип издания: сборник
Аудио кодек: FLAC
Тип рипа: (image + .cue)
Битрейт аудио: lossless

Треклист:

01. Dr. Alban - Mr. Dj (Tokari-Sash! mix)
02. Alexia - Another Way (original)
03. T-Spoon - Message of Love (7" mix)
04. Love & Devotion - Can`t Get Enough (radio edit)
05. La Chica - La Fiesta de La Noche (radio version)
06. La Fuertezza - 2 The Night (verlanzi mix)
07. Terranova - Janina (pandera club remix)
08. Partyfloor feat. MC Polt - Immer Bum Bum (radio mix)
09. Guess Who? - Falling Into You (original radio mix)
10. Rococo (feat DJ Schwede) - Musica Bounissima (radio mix)
11. Jam feat. Natascha Wright - Thinking About You (original mix)
12. Pandera - Joy And Fun (radio mix)
13. Whigfield - Baby Boy (original radio mix)
14. Hamyna Ay La Vida Ay L`Amor (original)
15. Sash! feat La Trec - Stay (original single edit)


Доп. информация: Чешское издание

Код:

Exact Audio Copy V1.0 beta 3 from 29. August 2011

EAC extraction logfile from 30. August 2013, 4:54

Various / Зимний Хит! vol. 2

Used drive  : MATSHITADVD-RAM UJ-841S   Adapter: 2  ID: 0

Read mode               : Secure
Utilize accurate stream : Yes
Defeat audio cache      : Yes
Make use of C2 pointers : No

Read offset correction                      : 102
Overread into Lead-In and Lead-Out          : No
Fill up missing offset samples with silence : Yes
Delete leading and trailing silent blocks   : No
Null samples used in CRC calculations       : Yes
Used interface                              : Installed external ASPI interface

Used output format : Internal WAV Routines
Sample format      : 44.100 Hz; 16 Bit; Stereo

TOC of the extracted CD

     Track |   Start  |  Length  | Start sector | End sector
    ---------------------------------------------------------
        1  |  0:00.10 |  3:42.41 |        10    |    16700   
        2  |  3:42.51 |  3:55.70 |     16701    |    34395   
        3  |  7:38.46 |  3:30.25 |     34396    |    50170   
        4  | 11:08.71 |  4:24.45 |     50171    |    70015   
        5  | 15:33.41 |  3:44.62 |     70016    |    86877   
        6  | 19:18.28 |  4:31.40 |     86878    |   107242   
        7  | 23:49.68 |  6:12.13 |    107243    |   135155   
        8  | 30:02.06 |  3:50.20 |    135156    |   152425   
        9  | 33:52.26 |  4:07.50 |    152426    |   171000   
       10  | 38:00.01 |  3:56.72 |    171001    |   188772   
       11  | 41:56.73 |  3:52.08 |    188773    |   206180   
       12  | 45:49.06 |  3:55.43 |    206181    |   223848   
       13  | 49:44.49 |  3:39.48 |    223849    |   240321   
       14  | 53:24.22 |  3:58.30 |    240322    |   258201   
       15  | 57:22.52 |  3:28.63 |    258202    |   273864   

Range status and errors

Selected range

     Filename E:\stratos\Imiges\Various - Зимний Хит! vol. 2\Various - Зимний Хит! vol. 2.wav

     Peak level 98.8 %
     Extraction speed 2.6 X
     Range quality 100.0 %
     Test CRC 565566F4
     Copy CRC 565566F4
     Copy OK

No errors occurred

 
AccurateRip summary
 
Track  1  not present in database
Track  2  not present in database
Track  3  not present in database
Track  4  not present in database
Track  5  not present in database
Track  6  not present in database
Track  7  not present in database
Track  8  not present in database
Track  9  not present in database
Track 10  not present in database
Track 11  not present in database
Track 12  not present in database
Track 13  not present in database
Track 14  not present in database
Track 15  not present in database
 
None of the tracks are present in the AccurateRip database

End of status report

==== Log checksum D9C2184DCC16E63F35F49FADD1B1AA0A7D072BF333BF9E576144767C9CCE886D ====

Страница 1 из 1

new_topic  reply_topic

Текущее время: 25-Янв 10:57
Часовой пояс: GMT + 4

m Сделано с любовью PR-CY.ru Каталог webplus.info