Вход на сайт

Имя:
Пароль:

· Забыли пароль?
logo
Портал Форум
Регистрация Вход


new_topic  reply_topic

  (Italo-Disco) Felli ‎– Thirty Dancing 2012, FLAC (image + .cue), lossless

pic
Год выпуска: 2012
Страна: Italy
Производитель: Felli Self-released
Жанр: Italo-Disco
Номер #: FGF-001
Продолжительность: 01:12:59

Тип издания: альбом
Аудио кодек: FLAC
Тип рипа: (image + .cue)
Битрейт аудио: lossless

Треклист:

01 Celebration (Frag. - Pretty Girl) (05:52)
02 Musica Maestro (Radio Edit) (03:58)
03 Everything Is Perfect (Radio Edit) (04:11)
04 Prisoner Of Love (04:21)
05 Shadows Of The Night (05:10)
06 Palagianello Ricordi (06:14)
07 Music Man (04:46)
08 Diamond In The Night (05:38)
09 Greatest Mind (06:39)
10 Vai Mennagio! (03:09)
11 Musica Maestro (Ext.) (07:23)
12 Everything Is Perfect (Full Vs) (05:29)
13 Shadows Of The Night (Wizard) (05:15)
14 Flying (04:26)

Код:

Exact Audio Copy V1.0 beta 3 from 29. August 2011

EAC extraction logfile from 1. September 2013, 16:15

Felli / Thirty Dancing [FGF-001]

Used drive  : SONY    DVD RW DRU-820A   Adapter: 3  ID: 0

Read mode               : Secure
Utilize accurate stream : Yes
Defeat audio cache      : Yes
Make use of C2 pointers : No

Read offset correction                      : 102
Overread into Lead-In and Lead-Out          : No
Fill up missing offset samples with silence : Yes
Delete leading and trailing silent blocks   : No
Null samples used in CRC calculations       : Yes
Used interface                              : Native Win32 interface for Win NT & 2000

Used output format : Internal WAV Routines
Sample format      : 44.100 Hz; 16 Bit; Stereo

TOC of the extracted CD

     Track |   Start  |  Length  | Start sector | End sector
    ---------------------------------------------------------
        1  |  0:00.00 |  5:26.65 |         0    |    24514   
        2  |  5:26.65 |  4:02.31 |     24515    |    42695   
        3  |  9:29.21 |  4:15.65 |     42696    |    61885   
        4  | 13:45.11 |  4:25.72 |     61886    |    81832   
        5  | 18:11.08 |  5:14.24 |     81833    |   105406   
        6  | 23:25.32 |  6:18.05 |    105407    |   133761   
        7  | 29:43.37 |  4:50.13 |    133762    |   155524   
        8  | 34:33.50 |  5:42.51 |    155525    |   181225   
        9  | 40:16.26 |  6:43.11 |    181226    |   211461   
       10  | 46:59.37 |  3:13.09 |    211462    |   225945   
       11  | 50:12.46 |  7:27.25 |    225946    |   259495   
       12  | 57:39.71 |  5:33.52 |    259496    |   284522   
       13  | 63:13.48 |  5:19.00 |    284523    |   308447   
       14  | 68:32.48 |  4:26.51 |    308448    |   328448   

Range status and errors

Selected range

     Filename E:\Felli - Thirty Dancing [FGF-001] (2012) FLAC\Felli - Thirty Dancing [FGF-001].wav

     Peak level 100.0 %
     Extraction speed 7.8 X
     Range quality 100.0 %
     Test CRC EDA5CDDC
     Copy CRC EDA5CDDC
     Copy OK

No errors occurred

 
AccurateRip summary
 
Track  1  not present in database
Track  2  not present in database
Track  3  not present in database
Track  4  not present in database
Track  5  not present in database
Track  6  not present in database
Track  7  not present in database
Track  8  not present in database
Track  9  not present in database
Track 10  not present in database
Track 11  not present in database
Track 12  not present in database
Track 13  not present in database
Track 14  not present in database
 
None of the tracks are present in the AccurateRip database

End of status report

==== Log checksum 6F03A41349C58A88968DE8B6430D64A31E547877AF0F211907E5D7F43F0C2DF4 ====
thankxxxxxxx

Страница 1 из 1

new_topic  reply_topic

Текущее время: 19-Сен 12:01
Часовой пояс: GMT + 4

m Сделано с любовью PR-CY.ru Каталог webplus.info