Вход на сайт

Имя:
Пароль:

· Забыли пароль?
logo
Портал Форум
Регистрация Вход


new_topic  reply_topic

  (Pop) Various Artists - Striscia La Compilation Summer 2013 2013, WAV (tracks + .cue), lossless

pic
Год выпуска: 2013
Страна: Italy
Производитель: Universal Music
Жанр: Pop
Номер #: 5344177
Продолжительность: 01:18:15

Тип издания: сборник
Аудио кодек: WAV
Тип рипа: (tracks + .cue)
Битрейт аудио: lossless

Треклист:

01 Robin Thicke feat. Pharrell - Blurred Lines (No Rap Version) (03:52)
02 Empire Of The Sun - Alive (03:26)
03 David Guetta feat. Ne-Yo & Akon - Play Hard (03:23)
04 will.i.am feat. Justin Bieber - #thatPOWER (04:41)
05 Bastille - Pompeii (03:35)
06 Ola - I'm In Love (03:21)
07 Martin Solveig & The Cataracs feat. Kyle - Hey Now (Single Mix) (03:09)
08 Zedd feat. Foxes - Clarity (04:32)
09 Armin van Buuren feat. Trevor Guthrie - This Is What It Feels Like (Seperate Master / Do Not Mention) (03:25)
10 OneRepublic & Alesso - If I Lose Myself (Alesso vs OneRepublic) (03:36)
11 Sebastian Ingrosso, Tommy Trash, John Martin - Reload (Vocal Version / Radio Edit) (03:43)
12 Axwell - Center Of The Universe (Original Radio Edit) (03:32)
13 Calvin Harris feat. Ellie Goulding - I Need Your Love (03:55)
14 Wankelmut & Emma Louise - My Head Is A Jungle (Radio Edit) (03:34)
15 Francesco Rossi - Paper Aeroplane (Radio Edit) (04:01)
16 John Newman - Love Me Again (Radio Edit) (03:37)
17 Bob Sinclar - Summer Moonlight (Radio Edit) (03:17)
18 Psy - Gentleman (03:16)
19 Fly Project - Back In My Life (03:18)
20 Gusttavo Lima - Gatinha Assanhada (Original) (03:11)
21 Claudia & Asu - Zalele (02:49)
Bonus Track
22 Gabibbo - Suda (02:52)

Доп. информация: Сборник горячих летних хитов формата радиостанции Европа + !

Info

Код:

Exact Audio Copy V1.0 beta 3 from 29. August 2011

EAC extraction logfile from 13. August 2013, 0:55

Various Artists / Striscia La Compilation Summer 2013

Used drive  : SONY    DVD RW DRU-820A   Adapter: 3  ID: 0

Read mode               : Secure
Utilize accurate stream : Yes
Defeat audio cache      : Yes
Make use of C2 pointers : No

Read offset correction                      : 102
Overread into Lead-In and Lead-Out          : No
Fill up missing offset samples with silence : Yes
Delete leading and trailing silent blocks   : No
Null samples used in CRC calculations       : Yes
Used interface                              : Native Win32 interface for Win NT & 2000
Gap handling                                : Appended to previous track

Used output format : Internal WAV Routines
Sample format      : 44.100 Hz; 16 Bit; Stereo

TOC of the extracted CD

     Track |   Start  |  Length  | Start sector | End sector
    ---------------------------------------------------------
        1  |  0:00.00 |  3:52.67 |         0    |    17466   
        2  |  3:52.67 |  3:26.44 |     17467    |    32960   
        3  |  7:19.36 |  3:23.69 |     32961    |    48254   
        4  | 10:43.30 |  4:41.38 |     48255    |    69367   
        5  | 15:24.68 |  3:35.60 |     69368    |    85552   
        6  | 19:00.53 |  3:21.10 |     85553    |   100637   
        7  | 22:21.63 |  3:09.45 |    100638    |   114857   
        8  | 25:31.33 |  4:32.23 |    114858    |   135280   
        9  | 30:03.56 |  3:25.24 |    135281    |   150679   
       10  | 33:29.05 |  3:36.05 |    150680    |   166884   
       11  | 37:05.10 |  3:43.28 |    166885    |   183637   
       12  | 40:48.38 |  3:32.74 |    183638    |   199611   
       13  | 44:21.37 |  3:55.38 |    199612    |   217274   
       14  | 48:17.00 |  3:34.71 |    217275    |   233395   
       15  | 51:51.71 |  4:01.54 |    233396    |   251524   
       16  | 55:53.50 |  3:37.23 |    251525    |   267822   
       17  | 59:30.73 |  3:17.07 |    267823    |   282604   
       18  | 62:48.05 |  3:16.07 |    282605    |   297311   
       19  | 66:04.12 |  3:18.09 |    297312    |   312170   
       20  | 69:22.21 |  3:11.47 |    312171    |   326542   
       21  | 72:33.68 |  2:49.27 |    326543    |   339244   
       22  | 75:23.20 |  2:52.47 |    339245    |   352191   

Track  1

     Filename E:\Various Artists - Striscia La Compilation Summer 2013\(01) [Robin Thicke feat. Pharrell] Blurred Lines (No Rap Version) .wav

     Pre-gap length  0:00:02.00

     Peak level 100.0 %
     Extraction speed 4.4 X
     Track quality 100.0 %
     Test CRC 8F9897B8
     Copy CRC 8F9897B8
     Track not present in AccurateRip database
     Copy OK

Track  2

     Filename E:\Various Artists - Striscia La Compilation Summer 2013\(02) [Empire Of The Sun] Alive .wav

     Pre-gap length  0:00:02.00

     Peak level 83.2 %
     Extraction speed 4.6 X
     Track quality 100.0 %
     Test CRC 19922A76
     Copy CRC 19922A76
     Track not present in AccurateRip database
     Copy OK

Track  3

     Filename E:\Various Artists - Striscia La Compilation Summer 2013\(03) [David Guetta feat. Ne-Yo & Akon] Play Hard .wav

     Pre-gap length  0:00:02.00

     Peak level 99.8 %
     Extraction speed 4.9 X
     Track quality 100.0 %
     Test CRC ED9C6F7D
     Copy CRC ED9C6F7D
     Track not present in AccurateRip database
     Copy OK

Track  4

     Filename E:\Various Artists - Striscia La Compilation Summer 2013\(04) [will.i.am feat. Justin Bieber] #thatPOWER .wav

     Pre-gap length  0:00:02.00

     Peak level 100.0 %
     Extraction speed 4.2 X
     Track quality 99.9 %
     Test CRC DA092BED
     Copy CRC DA092BED
     Track not present in AccurateRip database
     Copy OK

Track  5

     Filename E:\Various Artists - Striscia La Compilation Summer 2013\(05) [Bastille] Pompeii .wav

     Pre-gap length  0:00:02.00

     Peak level 100.0 %
     Extraction speed 4.0 X
     Track quality 99.9 %
     Test CRC ABE10CC3
     Copy CRC ABE10CC3
     Track not present in AccurateRip database
     Copy OK

Track  6

     Filename E:\Various Artists - Striscia La Compilation Summer 2013\(06) [Ola] I'm In Love .wav

     Pre-gap length  0:00:01.74

     Peak level 100.0 %
     Extraction speed 5.6 X
     Track quality 100.0 %
     Test CRC C228C322
     Copy CRC C228C322
     Track not present in AccurateRip database
     Copy OK

Track  7

     Filename E:\Various Artists - Striscia La Compilation Summer 2013\(07) [Martin Solveig & The Cataracs feat. Kyle] Hey Now (Single Mix) .wav

     Pre-gap length  0:00:02.00

     Peak level 89.1 %
     Extraction speed 5.7 X
     Track quality 100.0 %
     Test CRC D0DC5AEE
     Copy CRC D0DC5AEE
     Track not present in AccurateRip database
     Copy OK

Track  8

     Filename E:\Various Artists - Striscia La Compilation Summer 2013\(08) [Zedd feat. Foxes] Clarity .wav

     Pre-gap length  0:00:02.00

     Peak level 100.0 %
     Extraction speed 6.2 X
     Track quality 100.0 %
     Test CRC 4C2FDCEF
     Copy CRC 4C2FDCEF
     Track not present in AccurateRip database
     Copy OK

Track  9

     Filename E:\Various Artists - Striscia La Compilation Summer 2013\(09) [Armin van Buuren feat. Trevor Guthrie] This Is What It Feels Like (Seperate Master , Do Not Mention) .wav

     Pre-gap length  0:00:01.74

     Peak level 96.6 %
     Extraction speed 6.3 X
     Track quality 100.0 %
     Test CRC 17D2D54F
     Copy CRC 17D2D54F
     Track not present in AccurateRip database
     Copy OK

Track 10

     Filename E:\Various Artists - Striscia La Compilation Summer 2013\(10) [OneRepublic & Alesso] If I Lose Myself (Alesso vs OneRepublic) .wav

     Pre-gap length  0:00:02.01

     Peak level 100.0 %
     Extraction speed 6.3 X
     Track quality 100.0 %
     Test CRC A0E14219
     Copy CRC A0E14219
     Track not present in AccurateRip database
     Copy OK

Track 11

     Filename E:\Various Artists - Striscia La Compilation Summer 2013\(11) [Sebastian Ingrosso, Tommy Trash, John Martin] Reload (Vocal Version , Radio Edit) .wav

     Pre-gap length  0:00:02.01

     Peak level 99.3 %
     Extraction speed 6.6 X
     Track quality 100.0 %
     Test CRC 61631891
     Copy CRC 61631891
     Track not present in AccurateRip database
     Copy OK

Track 12

     Filename E:\Various Artists - Striscia La Compilation Summer 2013\(12) [Axwell] Center Of The Universe (Original Radio Edit) .wav

     Pre-gap length  0:00:02.00

     Peak level 100.0 %
     Extraction speed 6.8 X
     Track quality 100.0 %
     Test CRC 58ABD675
     Copy CRC 58ABD675
     Track not present in AccurateRip database
     Copy OK

Track 13

     Filename E:\Various Artists - Striscia La Compilation Summer 2013\(13) [Calvin Harris feat. Ellie Goulding] I Need Your Love .wav

     Pre-gap length  0:00:02.00

     Peak level 100.0 %
     Extraction speed 6.9 X
     Track quality 100.0 %
     Test CRC 5DCB6985
     Copy CRC 5DCB6985
     Track not present in AccurateRip database
     Copy OK

Track 14

     Filename E:\Various Artists - Striscia La Compilation Summer 2013\(14) [Wankelmut & Emma Louise] My Head Is A Jungle (Radio Edit) .wav

     Pre-gap length  0:00:01.00

     Peak level 100.0 %
     Extraction speed 7.0 X
     Track quality 100.0 %
     Test CRC 25789765
     Copy CRC 25789765
     Track not present in AccurateRip database
     Copy OK

Track 15

     Filename E:\Various Artists - Striscia La Compilation Summer 2013\(15) [Francesco Rossi] Paper Aeroplane (Radio Edit) .wav

     Pre-gap length  0:00:02.00

     Peak level 100.0 %
     Extraction speed 7.2 X
     Track quality 100.0 %
     Test CRC FB2D6F71
     Copy CRC FB2D6F71
     Track not present in AccurateRip database
     Copy OK

Track 16

     Filename E:\Various Artists - Striscia La Compilation Summer 2013\(16) [John Newman] Love Me Again (Radio Edit) .wav

     Pre-gap length  0:00:02.00

     Peak level 100.0 %
     Extraction speed 7.2 X
     Track quality 100.0 %
     Test CRC E3A5F2D3
     Copy CRC E3A5F2D3
     Track not present in AccurateRip database
     Copy OK

Track 17

     Filename E:\Various Artists - Striscia La Compilation Summer 2013\(17) [Bob Sinclar] Summer Moonlight (Radio Edit) .wav

     Pre-gap length  0:00:02.00

     Peak level 100.0 %
     Extraction speed 6.3 X
     Track quality 100.0 %
     Test CRC 357D457C
     Copy CRC 357D457C
     Track not present in AccurateRip database
     Copy OK

Track 18

     Filename E:\Various Artists - Striscia La Compilation Summer 2013\(18) [Psy] Gentleman .wav

     Pre-gap length  0:00:02.00

     Peak level 100.0 %
     Extraction speed 7.4 X
     Track quality 100.0 %
     Test CRC 6EE1949C
     Copy CRC 6EE1949C
     Track not present in AccurateRip database
     Copy OK

Track 19

     Filename E:\Various Artists - Striscia La Compilation Summer 2013\(19) [Fly Project] Back In My Life .wav

     Pre-gap length  0:00:02.00

     Peak level 100.0 %
     Extraction speed 7.3 X
     Track quality 100.0 %
     Test CRC CC1E9C4A
     Copy CRC CC1E9C4A
     Track not present in AccurateRip database
     Copy OK

Track 20

     Filename E:\Various Artists - Striscia La Compilation Summer 2013\(20) [Gusttavo Lima] Gatinha Assanhada (Original) .wav

     Pre-gap length  0:00:02.00

     Peak level 100.0 %
     Extraction speed 7.8 X
     Track quality 100.0 %
     Test CRC 301BA451
     Copy CRC 301BA451
     Track not present in AccurateRip database
     Copy OK

Track 21

     Filename E:\Various Artists - Striscia La Compilation Summer 2013\(21) [Claudia & Asu] Zalele .wav

     Pre-gap length  0:00:02.00

     Peak level 99.9 %
     Extraction speed 7.9 X
     Track quality 100.0 %
     Test CRC CD1166B0
     Copy CRC CD1166B0
     Track not present in AccurateRip database
     Copy OK

Track 22

     Filename E:\Various Artists - Striscia La Compilation Summer 2013\(22) [Gabibbo] Suda .wav

     Pre-gap length  0:00:01.74

     Peak level 100.0 %
     Extraction speed 5.2 X
     Track quality 99.9 %
     Test CRC 3CA94810
     Copy CRC 3CA94810
     Track not present in AccurateRip database
     Copy OK

None of the tracks are present in the AccurateRip database

No errors occurred

End of status report

==== Log checksum 7D16FCF76A29A4347A51F3E66CB2FC8758F2214555C1E0F49DF9F4062CCFE2FD ====

Страница 1 из 1

new_topic  reply_topic

Текущее время: 18-Янв 11:44
Часовой пояс: GMT + 4

m Сделано с любовью PR-CY.ru Каталог webplus.info