Вход на сайт

Имя:
Пароль:

· Забыли пароль?
logo
Портал Форум
Регистрация Вход


new_topic  reply_topic

  (Pop) Various - Летний Хит! vol. 4 1998, FLAC (image + .cue), lossless

pic
Год выпуска: 1998
Страна: Россия
Производитель: RMG
Жанр: Pop
Номер #: 1077-2 (ToCo 941-628-2)
Продолжительность: 60 мин.

Тип издания: сборник
Аудио кодек: FLAC
Тип рипа: (image + .cue)
Битрейт аудио: lossless

Треклист:

01. Fors - Baby Girl (Uh-La-La-La-La)- (radio mix)
02. T-Spoon - Tom`s Party (radio mix)
03. Cocoloco - La Budndinha (latin radio mix)
04. Whigfield - Givin` All My Love (alesis edit mix)
05. Dr. Alban - Feel the Rhythm (radio edit)
06. 2 Unlimited - The Edge of Heaven (radio edit)
07. Nina - Gimme Sunshine
08. TNN - La Cucamarcha` 98
09. DJ Bobo - I`ll Be There
10. Atlantic - My Heart Will Go On (radio edit)
11. Lola - Frozen (gelato dance edit)
12. CB Milton - Get Into My Life (radio edit)
13. 2Gether - Down Under
14. Bon Bon - Sexy Boy (radio version)
15. Prince Libor - Prince Igor (The Rapsody)

Код:

Exact Audio Copy V1.0 beta 3 from 29. August 2011

EAC extraction logfile from 6. September 2013, 9:00

Various / Летний хит! vol. 4

Used drive  : MATSHITADVD-RAM UJ-841S   Adapter: 2  ID: 0

Read mode               : Secure
Utilize accurate stream : Yes
Defeat audio cache      : Yes
Make use of C2 pointers : No

Read offset correction                      : 102
Overread into Lead-In and Lead-Out          : No
Fill up missing offset samples with silence : Yes
Delete leading and trailing silent blocks   : No
Null samples used in CRC calculations       : Yes
Used interface                              : Installed external ASPI interface

Used output format : Internal WAV Routines
Sample format      : 44.100 Hz; 16 Bit; Stereo

TOC of the extracted CD

     Track |   Start  |  Length  | Start sector | End sector
    ---------------------------------------------------------
        1  |  0:00.10 |  4:07.03 |        10    |    18537   
        2  |  4:07.13 |  3:50.69 |     18538    |    35856   
        3  |  7:58.07 |  3:38.25 |     35857    |    52231   
        4  | 11:36.32 |  3:59.46 |     52232    |    70202   
        5  | 15:36.03 |  3:18.32 |     70203    |    85084   
        6  | 18:54.35 |  4:15.20 |     85085    |   104229   
        7  | 23:09.55 |  3:38.49 |    104230    |   120628   
        8  | 26:48.29 |  3:28.56 |    120629    |   136284   
        9  | 30:17.10 |  4:27.04 |    136285    |   156313   
       10  | 34:44.14 |  3:50.49 |    156314    |   173612   
       11  | 38:34.63 |  4:49.65 |    173613    |   195352   
       12  | 43:24.53 |  3:40.60 |    195353    |   211912   
       13  | 47:05.38 |  3:45.65 |    211913    |   228852   
       14  | 50:51.28 |  5:10.23 |    228853    |   252125   
       15  | 56:01.51 |  4:05.59 |    252126    |   270559   

Range status and errors

Selected range

     Filename E:\stratos\Imiges\Various - Летний Хит! vol. 4\Various - Летний хит! vol. 4.wav

     Peak level 99.9 %
     Extraction speed 2.5 X
     Range quality 100.0 %
     Test CRC B55490D4
     Copy CRC B55490D4
     Copy OK

No errors occurred

 
AccurateRip summary
 
Track  1  not present in database
Track  2  not present in database
Track  3  not present in database
Track  4  not present in database
Track  5  not present in database
Track  6  not present in database
Track  7  not present in database
Track  8  not present in database
Track  9  not present in database
Track 10  not present in database
Track 11  not present in database
Track 12  not present in database
Track 13  not present in database
Track 14  not present in database
Track 15  not present in database
 
None of the tracks are present in the AccurateRip database

End of status report

==== Log checksum 904530D5156C6115C255B0EA1D145F3E28247DB730175722EF66B5616E51D371 ====

Страница 1 из 1

new_topic  reply_topic

Текущее время: 25-Янв 12:28
Часовой пояс: GMT + 4

m Сделано с любовью PR-CY.ru Каталог webplus.info