Вход на сайт

Имя:
Пароль:

· Забыли пароль?
logo
Портал Форум
Регистрация Вход


new_topic  reply_topic

  (Eurodance) M.C. SAR & THE REAL McCOY - 2 Singles 1994, FLAC tracks, lossless

pic
pic
Год выпуска: 1994
Производитель: Germany
Жанр: Eurodance
Лейбл - Номер по каталогу: Hansa – 74321 20460 2
Продолжительность: 00:31:42

Тип издания: сингл
Аудио кодек: FLAC
Тип рипа: tracks
Битрейт аудио: lossless

Rap: O-Jay (Olaf Jeglitza)

SPARS Code: DDD
Label Code: LC 0835
Barcode: 7 43212 04602 1
Rights Society: GEMA, BIEM
Distribution Code: F: BM 620
Matrix Code: SONOPRESS I-2257 / 4321204602 A 2

Треклист:

1. Automatic Lover (Call For Love) (Airplay Remix) (3:58)
2. Automatic Lover (Call For Love) (Maximum Mix) (4:53)
3. Automatic Lover (Call For Love) (B & B Mix) (5:48)
4. Automatic Lover (Call For Love) (Party Rave Mix) (5:34)
5. Automatic Lover (Call For Love) (Garage Mix) (5:40)
6. Automatic Lover (Call For Love) (Call For Hardcore Mix) (5:34)

Доп. информация: В раздачу добавлены отсканированные обложка, диск и матрица диска в 600 dpi.png + фото диска. Так же приложил принтскрин-файл теста зазоров, так как первый трек имеет предзазор > 2 секунд!
pic
Год выпуска: 1994
Производитель: UK (Made in England)
Жанр: Eurodance
Лейбл - Номер по каталогу: Logic Records – 74321 25882 2, Logic Records – 74321258822
Продолжительность: 00:39:38

Тип издания: сингл
Аудио кодек: FLAC
Тип рипа: tracks
Битрейт аудио: lossless

Rap: O-Jay (Olaf Jeglitza)

SPARS Code: DDD
Label Code: LC 7502
Barcode: 7 43212 58822 4
Distribution Code: F:BM 620
Mould SID Code: 11
Matrix Code: S 743212-58822 01 DISCTRONICS

Треклист:

1. Run Away (Airplay Mix I) (3:52)
2. Run Away (Video Mix) (3:08)
3. Run Away (Reel House) (5:45)
4. Run Away (Hallucination Mix) (5:30)
5. Run Away (Progressive House Mix) (5:53)
6. Run Away (Sound Factory Mix Vox Up) (5:53)
7. Run Away (Factory Dub) (7:05)

Доп. информация:.

Код:

Exact Audio Copy V1.0 beta 3 from 29. August 2011

Отчёт EAC об извлечении, выполненном 26. июня 2013, 16:18

M.C. SAR & THE REAL McCOY / Automatic Lover (Call For Love) (The Remixes)

Дисковод: ASUS    DRW-2014L1T   Adapter: 4  ID: 0

Режим чтения                 : Достоверность
Использование точного потока : Да
Отключение кэша аудио        : Да
Использование указателей C2  : Нет

Коррекция смещения при чтении                     : 6
Способность читать области Lead-in и Lead-out     : Нет
Заполнение пропущенных сэмплов тишиной            : Да
Удаление блоков с тишиной в начале и конце        : Нет
При вычислениях CRC использовались нулевые сэмплы : Да
Интерфейс                                         : Встроенный Win32-интерфейс для Win NT/2000
Обработка зазоров                                 : Добавлено к предыдущему треку

Выходной формат          : Пользовательский кодировщик
Выбранный битрейт        : 1024 kBit/s
Качество                 : Высокий
Добавление ID3-тега      : Нет
Утилита сжатия           : C:\Program Files\Exact Audio Copy\FLAC\FLAC.EXE
Дополнительные параметры : -6 -V -T "ARTIST=%artist%" -T "TITLE=%title%" -T "ALBUM=%albumtitle%" -T "DATE=%year%" -T "TRACKNUMBER=%tracknr%" -T "GENRE=%genre%" -T "COMMENT=%comment%" -T "BAND=%albuminterpret%" -T "ALBUMARTIST=%albuminterpret%" -T "COMPOSER=%composer%" %haslyrics%--tag-from-file=LYRICS="%lyricsfile%"%haslyrics% -T "DISCNUMBER=%cdnumber%" -T "TOTALDISCS=%totalcds%" -T "TOTALTRACKS=%numtracks%" %hascover%--picture="%coverfile%"%hascover% %source% -o %dest%

TOC извлечённого CD

     Трек |   Старт  | Длительность | Начальный сектор | Конечный сектор
    ---------------------------------------------------------------------
       1  |  0:00.32 |    3:59.30   |          32      |      17986     
       2  |  3:59.62 |    4:55.40   |       17987      |      40151     
       3  |  8:55.27 |    5:52.70   |       40152      |      66621     
       4  | 14:48.22 |    5:36.58   |       66622      |      91879     
       5  | 20:25.05 |    5:39.35   |       91880      |     117339     
       6  | 26:04.40 |    5:38.67   |      117340      |     142756     

Трек  1

     Имя файла E:\This EAC has made Federal\M.C. SAR & THE REAL McCOY -  Automatic Lover (Call For Love) (Airplay Remix).wav

     Длина предзазора  0:00:02.32

     Пиковый уровень 96.3 %
     Скорость извлечения 3.8 X
     Качество трека 99.9 %
     CRC теста 901DFED8
     CRC копии 901DFED8
     Точное извлечение (достоверность 2)  [D6B5A1FB]  (AR v1)
     Копирование... OK

Трек  2

     Имя файла E:\This EAC has made Federal\M.C. SAR & THE REAL McCOY -  Automatic Lover (Call For Love) (Maximum Mix).wav

     Длина предзазора  0:00:01.32

     Пиковый уровень 97.2 %
     Скорость извлечения 5.8 X
     Качество трека 100.0 %
     CRC теста 0873CD33
     CRC копии 0873CD33
     Точное извлечение (достоверность 2)  [C9A2E831]  (AR v1)
     Копирование... OK

Трек  3

     Имя файла E:\This EAC has made Federal\M.C. SAR & THE REAL McCOY -  Automatic Lover (Call For Love) (B & B Mix).wav

     Длина предзазора  0:00:01.42

     Пиковый уровень 99.5 %
     Скорость извлечения 6.6 X
     Качество трека 100.0 %
     CRC теста 4F082A6F
     CRC копии 4F082A6F
     Точное извлечение (достоверность 2)  [A9F926CC]  (AR v1)
     Копирование... OK

Трек  4

     Имя файла E:\This EAC has made Federal\M.C. SAR & THE REAL McCOY -  Automatic Lover (Call For Love) (Party Rave Mix).wav

     Длина предзазора  0:00:01.35

     Пиковый уровень 96.7 %
     Скорость извлечения 7.3 X
     Качество трека 100.0 %
     CRC теста 50EE90A4
     CRC копии 50EE90A4
     Точное извлечение (достоверность 2)  [B0AD7FF8]  (AR v1)
     Копирование... OK

Трек  5

     Имя файла E:\This EAC has made Federal\M.C. SAR & THE REAL McCOY -  Automatic Lover (Call For Love) (Garage Mix).wav

     Длина предзазора  0:00:02.08

     Пиковый уровень 98.9 %
     Скорость извлечения 7.8 X
     Качество трека 100.0 %
     CRC теста EAF96214
     CRC копии EAF96214
     Точное извлечение (достоверность 2)  [57C70045]  (AR v1)
     Копирование... OK

Трек  6

     Имя файла E:\This EAC has made Federal\M.C. SAR & THE REAL McCOY -  Automatic Lover (Call For Love) (Call For Hardcore Mix).wav

     Длина предзазора  0:00:02.33

     Пиковый уровень 100.0 %
     Скорость извлечения 8.4 X
     Качество трека 100.0 %
     CRC теста 4F39E724
     CRC копии 4F39E724
     Точное извлечение (достоверность 2)  [14F0AFF8]  (AR v1)
     Копирование... OK

Все треки извлечены точно

Ошибок не произошло

Конец отчёта

==== Контрольная сумма отчёта 72BF6AC8BF3D9B0AAC2C67842480654D8F104467A54F84B4EA940286E1663399 ====

Код:

Exact Audio Copy V1.0 beta 3 from 29. August 2011

Отчёт EAC об извлечении, выполненном 1. октября 2021, 21:46

M.C. SAR & THE REAL McCOY / Run Away (UK Single) 1994

Дисковод: ASUS    DRW-1814BL   Adapter: 4  ID: 0

Режим чтения                 : Достоверность
Использование точного потока : Да
Отключение кэша аудио        : Да
Использование указателей C2  : Нет

Коррекция смещения при чтении                     : 6
Способность читать области Lead-in и Lead-out     : Нет
Заполнение пропущенных сэмплов тишиной            : Да
Удаление блоков с тишиной в начале и конце        : Нет
При вычислениях CRC использовались нулевые сэмплы : Да
Интерфейс                                         : Встроенный Win32-интерфейс для Win NT/2000
Обработка зазоров                                 : Добавлено к предыдущему треку

Выходной формат          : Пользовательский кодировщик
Выбранный битрейт        : 1024 kBit/s
Качество                 : Высокий
Добавление ID3-тега      : Нет
Утилита сжатия           : C:\Program Files (x86)\Exact Audio Copy\FLAC\FLAC.EXE
Дополнительные параметры : -6 -V -T "ARTIST=%artist%" -T "TITLE=%title%" -T "ALBUM=%albumtitle%" -T "DATE=%year%" -T "TRACKNUMBER=%tracknr%" -T "GENRE=%genre%" -T "COMMENT=%comment%" -T "BAND=%albuminterpret%" -T "ALBUMARTIST=%albuminterpret%" -T "COMPOSER=%composer%" %haslyrics%--tag-from-file=LYRICS="%lyricsfile%"%haslyrics% -T "DISCNUMBER=%cdnumber%" -T "TOTALDISCS=%totalcds%" -T "TOTALTRACKS=%numtracks%" %hascover%--picture="%coverfile%"%hascover% %source% -o %dest%

TOC извлечённого CD

     Трек |   Старт  | Длительность | Начальный сектор | Конечный сектор
    ---------------------------------------------------------------------
       1  |  0:00.32 |    3:57.10   |          32      |      17816     
       2  |  3:57.42 |    3:07.40   |       17817      |      31881     
       3  |  7:05.07 |    5:47.63   |       31882      |      57969     
       4  | 12:52.70 |    5:36.00   |       57970      |      83169     
       5  | 18:28.70 |    5:58.30   |       83170      |     110049     
       6  | 24:27.25 |    8:20.20   |      110050      |     147569     
       7  | 32:47.45 |    6:51.07   |      147570      |     178401     

Трек  1

     Имя файла E:\This EAC has made Federal\M.C. SAR & THE REAL McCOY - 1 - Run Away (Airplay Mix I).wav

     Длина предзазора  0:00:02.32

     Пиковый уровень 97.7 %
     Скорость извлечения 2.5 X
     Качество трека 100.0 %
     CRC теста 496A47EC
     CRC копии 496A47EC
     Точное извлечение (достоверность 13)  [EAD0E574]  (AR v2)
     Копирование... OK

Трек  2

     Имя файла E:\This EAC has made Federal\M.C. SAR & THE REAL McCOY - 2 - Run Away (Video Mix).wav

     Длина предзазора  0:00:02.35

     Пиковый уровень 95.8 %
     Скорость извлечения 1.5 X
     Качество трека 99.9 %
     CRC теста E5F5BB88
     CRC копии E5F5BB88
     Точное извлечение (достоверность 13)  [CE86A371]  (AR v2)
     Копирование... OK

Трек  3

     Имя файла E:\This EAC has made Federal\M.C. SAR & THE REAL McCOY - 3 - Run Away (Reel House).wav

     Длина предзазора  0:00:02.35

     Пиковый уровень 95.8 %
     Скорость извлечения 3.2 X
     Качество трека 100.0 %
     CRC теста 54567559
     CRC копии 54567559
     Точное извлечение (достоверность 12)  [34B5BC21]  (AR v2)
     Копирование... OK

Трек  4

     Имя файла E:\This EAC has made Federal\M.C. SAR & THE REAL McCOY - 4 - Run Away (Hallucination Mix).wav

     Длина предзазора  0:00:02.63

     Пиковый уровень 95.9 %
     Скорость извлечения 2.2 X
     Качество трека 99.9 %
     CRC теста 5C3478EA
     CRC копии 5C3478EA
     Точное извлечение (достоверность 13)  [8DCBF005]  (AR v2)
     Копирование... OK

Трек  5

     Имя файла E:\This EAC has made Federal\M.C. SAR & THE REAL McCOY - 5 - Run Away (Progressive House Mix).wav

     Длина предзазора  0:00:02.38

     Пиковый уровень 95.8 %
     Скорость извлечения 3.9 X
     Качество трека 100.0 %
     CRC теста A44AE9A3
     CRC копии A44AE9A3
     Точное извлечение (достоверность 12)  [9A3DDC4F]  (AR v2)
     Копирование... OK

Трек  6

     Имя файла E:\This EAC has made Federal\M.C. SAR & THE REAL McCOY - 6 - Run Away (Sound Factory Mix Vox Up).wav

     Длина предзазора  0:00:02.35

     Пиковый уровень 97.7 %
     Скорость извлечения 4.4 X
     Качество трека 100.0 %
     CRC теста 5D28AB70
     CRC копии 5D28AB70
     Точное извлечение (достоверность 13)  [89C8598A]  (AR v2)
     Копирование... OK

Трек  7

     Имя файла E:\This EAC has made Federal\M.C. SAR & THE REAL McCOY - 7 - Run Away (Factory Dub).wav

     Длина предзазора  0:00:02.38

     Пиковый уровень 97.7 %
     Скорость извлечения 4.7 X
     Качество трека 100.0 %
     CRC теста 7970BB7A
     CRC копии 7970BB7A
     Точное извлечение (достоверность 12)  [6CE48C31]  (AR v2)
     Копирование... OK

Все треки извлечены точно

Ошибок не произошло

Конец отчёта

==== Контрольная сумма отчёта 184A4285F515F06572A063FCC56564A2283BDCB234FB43B3F11666049375ACF8 ====

Добавлена информация по синглу M.C. SAR & THE REAL McCOY - Run Away (UK Single) 1994.

Страница 1 из 1

new_topic  reply_topic

Текущее время: 18-Янв 12:30
Часовой пояс: GMT + 4

m Сделано с любовью PR-CY.ru Каталог webplus.info