Вход на сайт

Имя:
Пароль:

· Забыли пароль?
logo
Портал Форум
Регистрация Вход


new_topic  reply_topic

  (Synth-pop) Various Artists - We Heard The Call Vol 2 2013 (3CD), FLAC (image + .cue), lossless

pic
Год выпуска: 2013
Страна: Sweden
Производитель: RobertPreussler16 Records
Жанр: Synth-pop
Номер #: RP16R001
Тип издания: сборник
Аудио кодек: FLAC
Тип рипа: (image + .cue)
Битрейт аудио: lossless

Треклист:

CD 1
01 Sappy feat. K.H. - I Die For You Today
02 Antilles - Golden Feeling
03 Ephemere - Danger In Your Paradise
04 Tobias Karlsson - Big In Japan (Fingerstyle Guitar)
05 Christian Gomez - Wishful Thinking
06 Millionmoons - Phantoms
07 Snömodd - Red Rose
08 People Theatre - A Victory Of Love
09 Cha_Cal feat. Karen Roddis-Cojocaru - For A Million
10 Payola Disco - She Fades Away
11 Artwork - In The Mood
12 Estatuas del Sol - Ivory Tower
13 Eurotix - Lies
14 CGM feat. CTC - Life Is King VS 20000 Lieues Sous Les Mers


CD 2

01 Avalon feat. Slender Flame - Forever Young
02 Herve Lamoureux - Corps Astral
03 Viper & Ira Vain - Wishful Thinking
04 Slender Flame - Next Generation
05 Human Tales - She Fades Away
06 Raindancer - To Germany With Love
07 Tommie - Montego Bay
08 I Satellite - A Victory Of Love
09 María & The Wonderboys - Wonderboy
10 Nightshade - In The Mood
11 Defence Of Rage - Golden Feeling
12 Vickey Uncut - Flame (Live)
13 Friends Indeed - Jet Set
14 Antilles - Elevator
15 I_R.J, - Euphoria


CD 3

01 Paper Dragon - Dance With Me (Live)
02 Aquaterra - For A Million
03 DJ Oren Amram feat. Paula B. - Fallen Angel
04 Taissir Muhsen - Inside Out
05 Sappy feat. S.H. - Summer In Berlin
06 Taubenherz - Wishful Thinking
07 Bad Bard - Return To Paradise
08 Strauss ex Machina - A Victory Of Love
09 Steeve Richard - Carry Your Flag
10 @salvapastor - Big In Japan
11 Vision Talk - I Die For You Today
12 Maomoondog - Afternoons In Utopia (Instrumental)
13 Doudoucoincoin - Those Wonderful Things
14 Manuel Richter - Forever Young (Live)
15 Vincent Ravilly - The Mysterious Colored Elevator


Доп. информация: Alphaville tribute compilation album.

Код:

Exact Audio Copy V1.0 beta 3 from 29. August 2011

EAC extraction logfile from 3. November 2013, 13:46

Various Artists / We Heard The Call

Used drive  : SONY    DVD RW DRU-820A   Adapter: 3  ID: 0

Read mode               : Secure
Utilize accurate stream : Yes
Defeat audio cache      : Yes
Make use of C2 pointers : No

Read offset correction                      : 102
Overread into Lead-In and Lead-Out          : No
Fill up missing offset samples with silence : Yes
Delete leading and trailing silent blocks   : No
Null samples used in CRC calculations       : Yes
Used interface                              : Native Win32 interface for Win NT & 2000

Used output format : Internal WAV Routines
Sample format      : 44.100 Hz; 16 Bit; Stereo

TOC of the extracted CD

     Track |   Start  |  Length  | Start sector | End sector
    ---------------------------------------------------------
        1  |  0:00.00 |  4:07.74 |         0    |    18598   
        2  |  4:07.74 |  4:05.58 |     18599    |    37031   
        3  |  8:13.57 |  6:59.31 |     37032    |    68487   
        4  | 15:13.13 |  2:55.36 |     68488    |    81648   
        5  | 18:08.49 |  5:15.59 |     81649    |   105332   
        6  | 23:24.33 |  4:00.68 |    105333    |   123400   
        7  | 27:25.26 |  3:56.65 |    123401    |   141165   
        8  | 31:22.16 |  4:29.61 |    141166    |   161401   
        9  | 35:52.02 |  6:44.12 |    161402    |   191713   
       10  | 42:36.14 |  3:27.68 |    191714    |   207306   
       11  | 46:04.07 |  4:10.48 |    207307    |   226104   
       12  | 50:14.55 |  4:25.66 |    226105    |   246045   
       13  | 54:40.46 |  4:40.07 |    246046    |   267052   
       14  | 59:20.53 |  6:55.59 |    267053    |   298236   

Range status and errors

Selected range

     Filename E:\Various Artists - We Heard The Call (2013) (3 CD)\Various Artists - We Heard The Call CD 1.wav

     Peak level 97.4 %
     Extraction speed 7.0 X
     Range quality 99.9 %
     Test CRC 69B8E8DE
     Copy CRC 69B8E8DE
     Copy OK

No errors occurred

 
AccurateRip summary
 
Track  1  accurately ripped (confidence 2)  [9554CB8F]  (AR v2)
Track  2  accurately ripped (confidence 2)  [D2DBA44B]  (AR v2)
Track  3  accurately ripped (confidence 2)  [3229103E]  (AR v2)
Track  4  accurately ripped (confidence 2)  [87146310]  (AR v2)
Track  5  accurately ripped (confidence 2)  [1B86403F]  (AR v2)
Track  6  accurately ripped (confidence 2)  [C7E30817]  (AR v2)
Track  7  accurately ripped (confidence 1)  [F217BF42]  (AR v2)
Track  8  accurately ripped (confidence 2)  [55C63EB4]  (AR v2)
Track  9  accurately ripped (confidence 2)  [29277027]  (AR v2)
Track 10  accurately ripped (confidence 2)  [71F7629B]  (AR v2)
Track 11  accurately ripped (confidence 2)  [1F4660E1]  (AR v2)
Track 12  accurately ripped (confidence 2)  [6C02F06F]  (AR v2)
Track 13  accurately ripped (confidence 2)  [AE1CD056]  (AR v2)
Track 14  accurately ripped (confidence 2)  [09D70104]  (AR v2)
 
All tracks accurately ripped

End of status report

==== Log checksum E512807B3E079B57E091B3032222DE2CE6A1E4BC5777B79718B378CE19C89867 ====

Exact Audio Copy V1.0 beta 3 from 29. August 2011

EAC extraction logfile from 3. November 2013, 14:09

Various Artists / We Heard The Call Vol. 2 CD2

Used drive  : SONY    DVD RW DRU-820A   Adapter: 3  ID: 0

Read mode               : Secure
Utilize accurate stream : Yes
Defeat audio cache      : Yes
Make use of C2 pointers : No

Read offset correction                      : 102
Overread into Lead-In and Lead-Out          : No
Fill up missing offset samples with silence : Yes
Delete leading and trailing silent blocks   : No
Null samples used in CRC calculations       : Yes
Used interface                              : Native Win32 interface for Win NT & 2000

Used output format : Internal WAV Routines
Sample format      : 44.100 Hz; 16 Bit; Stereo

TOC of the extracted CD

     Track |   Start  |  Length  | Start sector | End sector
    ---------------------------------------------------------
        1  |  0:00.00 |  5:49.31 |         0    |    26205   
        2  |  5:49.31 |  3:44.29 |     26206    |    43034   
        3  |  9:33.60 |  3:50.72 |     43035    |    60356   
        4  | 13:24.57 |  3:28.48 |     60357    |    76004   
        5  | 16:53.30 |  4:58.46 |     76005    |    98400   
        6  | 21:52.01 |  3:53.04 |     98401    |   115879   
        7  | 25:45.05 |  3:07.51 |    115880    |   129955   
        8  | 28:52.56 |  4:16.30 |    129956    |   149185   
        9  | 33:09.11 |  3:54.51 |    149186    |   166786   
       10  | 37:03.62 |  3:59.59 |    166787    |   184770   
       11  | 41:03.46 |  3:23.49 |    184771    |   200044   
       12  | 44:27.20 |  3:46.39 |    200045    |   217033   
       13  | 48:13.59 |  3:03.56 |    217034    |   230814   
       14  | 51:17.40 |  3:37.48 |    230815    |   247137   
       15  | 54:55.13 |  9:29.35 |    247138    |   289847   

Range status and errors

Selected range

     Filename E:\Various Artists - We Heard The Call (2013) (3 CD)\Various Artists - We Heard The Call Vol. 2 CD2.wav

     Peak level 100.0 %
     Extraction speed 7.3 X
     Range quality 100.0 %
     Test CRC CEC7F4B2
     Copy CRC CEC7F4B2
     Copy OK

No errors occurred

 
AccurateRip summary
 
Track  1  accurately ripped (confidence 2)  [5AC98CED]  (AR v2)
Track  2  accurately ripped (confidence 2)  [4482CAC6]  (AR v2)
Track  3  accurately ripped (confidence 2)  [0D7DAEFD]  (AR v2)
Track  4  accurately ripped (confidence 2)  [83A389BB]  (AR v2)
Track  5  accurately ripped (confidence 1)  [BE88C21D]  (AR v2)
Track  6  accurately ripped (confidence 2)  [6057B541]  (AR v2)
Track  7  accurately ripped (confidence 2)  [F15F4913]  (AR v2)
Track  8  accurately ripped (confidence 2)  [FF6C5470]  (AR v2)
Track  9  accurately ripped (confidence 2)  [EE6A75C3]  (AR v2)
Track 10  accurately ripped (confidence 2)  [ED138B29]  (AR v2)
Track 11  accurately ripped (confidence 2)  [158D0841]  (AR v2)
Track 12  accurately ripped (confidence 2)  [176D9C4D]  (AR v2)
Track 13  accurately ripped (confidence 2)  [F99FB7B1]  (AR v2)
Track 14  accurately ripped (confidence 2)  [C172812B]  (AR v2)
Track 15  accurately ripped (confidence 2)  [28463527]  (AR v2)
 
All tracks accurately ripped

End of status report

==== Log checksum C3938C214170BC933713DF312ABDBCA7BB59E56968240C69BDB2504B354F6123 ====

Exact Audio Copy V1.0 beta 3 from 29. August 2011

EAC extraction logfile from 3. November 2013, 14:37

Various Artists  / We Heard The Call Vol.2 СD 3

Used drive  : SONY    DVD RW DRU-820A   Adapter: 3  ID: 0

Read mode               : Secure
Utilize accurate stream : Yes
Defeat audio cache      : Yes
Make use of C2 pointers : No

Read offset correction                      : 102
Overread into Lead-In and Lead-Out          : No
Fill up missing offset samples with silence : Yes
Delete leading and trailing silent blocks   : No
Null samples used in CRC calculations       : Yes
Used interface                              : Native Win32 interface for Win NT & 2000

Used output format : Internal WAV Routines
Sample format      : 44.100 Hz; 16 Bit; Stereo

TOC of the extracted CD

     Track |   Start  |  Length  | Start sector | End sector
    ---------------------------------------------------------
        1  |  0:00.00 |  3:43.15 |         0    |    16739   
        2  |  3:43.15 |  5:54.36 |     16740    |    43325   
        3  |  9:37.51 |  3:42.43 |     43326    |    60018   
        4  | 13:20.19 |  4:17.52 |     60019    |    79345   
        5  | 17:37.71 |  4:54.37 |     79346    |   101432   
        6  | 22:32.33 |  3:05.48 |    101433    |   115355   
        7  | 25:38.06 |  2:11.49 |    115356    |   125229   
        8  | 27:49.55 |  6:30.06 |    125230    |   154485   
        9  | 34:19.61 |  4:38.20 |    154486    |   175355   
       10  | 38:58.06 |  4:48.34 |    175356    |   196989   
       11  | 43:46.40 |  4:16.62 |    196990    |   216251   
       12  | 48:03.27 |  2:48.69 |    216252    |   228920   
       13  | 50:52.21 |  3:33.48 |    228921    |   244943   
       14  | 54:25.69 |  4:09.64 |    244944    |   263682   
       15  | 58:35.58 |  7:01.01 |    263683    |   295258   

Range status and errors

Selected range

     Filename E:\Various Artists - We Heard The Call (2013) (3 CD)\Various Artists  - We Heard The Call Vol.2 СD 3.wav

     Peak level 98.6 %
     Extraction speed 7.4 X
     Range quality 100.0 %
     Test CRC EBC0E4AC
     Copy CRC EBC0E4AC
     Copy OK

No errors occurred

 
AccurateRip summary
 
Track  1  accurately ripped (confidence 1)  [CB8B6E5A]  (AR v2)
Track  2  accurately ripped (confidence 1)  [745F4CFA]  (AR v2)
Track  3  accurately ripped (confidence 1)  [557D734E]  (AR v2)
Track  4  accurately ripped (confidence 1)  [B73E2324]  (AR v2)
Track  5  accurately ripped (confidence 1)  [3444EA79]  (AR v2)
Track  6  accurately ripped (confidence 1)  [A2E80798]  (AR v2)
Track  7  accurately ripped (confidence 1)  [12335F85]  (AR v2)
Track  8  accurately ripped (confidence 1)  [E644290E]  (AR v2)
Track  9  accurately ripped (confidence 1)  [E575CAD4]  (AR v2)
Track 10  accurately ripped (confidence 1)  [AC62B779]  (AR v2)
Track 11  accurately ripped (confidence 1)  [6DEF6927]  (AR v2)
Track 12  accurately ripped (confidence 1)  [7CD5C876]  (AR v2)
Track 13  accurately ripped (confidence 1)  [CC665D52]  (AR v2)
Track 14  accurately ripped (confidence 1)  [2B87D7C5]  (AR v2)
Track 15  accurately ripped (confidence 1)  [F938F750]  (AR v2)
 
All tracks accurately ripped

End of status report

==== Log checksum BFB0DA304D8716F501FDF44EEBF5EEB8119FB5EFDD7BFF2E90CACB7E3CEB1ECC ====
Очень интересует данный альбом

zarbazan писал(а):

Очень интересует данный альбом
Ну так договорись с автором и будет тебе счастье может быть

Страница 1 из 1

new_topic  reply_topic

Текущее время: 02-Дек 01:06
Часовой пояс: GMT + 4

m Сделано с любовью PR-CY.ru Каталог webplus.info