Вход на сайт

Имя:
Пароль:

· Забыли пароль?
logo
Портал Форум
Регистрация Вход


new_topic  reply_topic

  (Euro House, House) Scatman John - Scatman's World - 1995, FLAC (image + .cue) lossless

pic
Год выпуска: 1995
Страна: США
Производитель: Япония
Жанр: Euro House, House, Downtempo
Номер #: BVCP-859 (BMG Victor Inc.)
Продолжительность: 0:56:07

Тип издания: альбом
Аудио кодек: FLAC
Тип рипа: (image + .cue)
Битрейт аудио: lossless

Треклист:

  1. Welcome To Scatland
  2. Scatman's World
  3. Only You
  4. Quiet Desperation
  5. Scatman (Ski-Ba-Bop-Ba-Dop-Bop)
  6. Sing Now!
  7. Popstar
  8. Time (Take Your Time)
  9. Mambo Jambo
  10. Everything Changes
  11. Song Of Scatland
  12. Hi, Louis
  13. Scatman (Game Over Jazz)
  14. Scatman (Spike Mix)

Код:

Exact Audio Copy V0.99 prebeta 5 from 4. May 2009

Отчёт EAC об извлечении, выполненном 12. декабря 2013, 21:01

Scatman John / Scatman's World

Дисковод: TSSTcorpCDDVDW SH-224BB   Adapter: 1  ID: 0

Режим чтения                 : Достоверность
Использование точного потока : Да
Отключение кэша аудио        : Да
Использование указателей C2  : Нет

Коррекция смещения при чтении                     : 6
Способность читать области Lead-in и Lead-out     : Нет
Заполнение пропущенных сэмплов тишиной            : Да
Удаление блоков с тишиной в начале и конце        : Нет
При вычислениях CRC использовались нулевые сэмплы : Да
Интерфейс                                         : Встроенный Win32-интерфейс для Win NT/2000

Выходной формат : Внутренние WAV-операции
Формат сэмплов  : 44.100 Гц; 16 бит; стерео

TOC извлечённого CD

     Трек |   Старт  | Длительность | Начальный сектор | Конечный сектор
    ---------------------------------------------------------------------
       1  |  0:00.00 |    0:56.20   |           0      |       4219     
       2  |  0:56.20 |    3:47.10   |        4220      |      21254     
       3  |  4:43.30 |    3:48.52   |       21255      |      38406     
       4  |  8:32.07 |    3:57.55   |       38407      |      56236     
       5  | 12:29.62 |    3:38.20   |       56237      |      72606     
       6  | 16:08.07 |    3:43.35   |       72607      |      89366     
       7  | 19:51.42 |    4:19.73   |       89367      |     108864     
       8  | 24:11.40 |    3:47.50   |      108865      |     125939     
       9  | 27:59.15 |    3:37.27   |      125940      |     142241     
      10  | 31:36.42 |    4:45.10   |      142242      |     163626     
      11  | 36:21.52 |    5:05.00   |      163627      |     186501     
      12  | 41:26.52 |    2:49.05   |      186502      |     199181     
      13  | 44:15.57 |    5:07.18   |      199182      |     222224     
      14  | 49:23.00 |    6:44.00   |      222225      |     252524     

Характеристики диапазона извлечения и сообщения об ошибках

Выбранный диапазон

     Имя файла K:\Зарубежная Поп-музыка\Scatman John (lossless)\Scatman John - Scatman's World (1995)\Scatman John - Scatman's World.wav

     Пиковый уровень 100.0 %
     Качество диапазона 100.0 %
     CRC теста 9F3A4D3E
     CRC копии 9F3A4D3E
     Копирование... OK

Ошибок не произошло

 
AccurateRip: сводка
 
Трек  1  точность не определена (достоверность 3)  [0FC12163], AccurateRip вернул [98ABC423]
Трек  2  точность не определена (достоверность 3)  [9884DDEE], AccurateRip вернул [3F77C92E]
Трек  3  точность не определена (достоверность 3)  [D86B5BC4], AccurateRip вернул [261DFA44]
Трек  4  точность не определена (достоверность 3)  [BC6A3385], AccurateRip вернул [C0F64945]
Трек  5  точность не определена (достоверность 3)  [A82FDDEE], AccurateRip вернул [F4C2C08E]
Трек  6  точность не определена (достоверность 3)  [AE20A635], AccurateRip вернул [C3DCE835]
Трек  7  точность не определена (достоверность 3)  [1DFC6F61], AccurateRip вернул [9A0B5AA1]
Трек  8  точность не определена (достоверность 3)  [73A444D7], AccurateRip вернул [546FA597]
Трек  9  точность не определена (достоверность 3)  [59F3914C], AccurateRip вернул [9393634C]
Трек 10  точность не определена (достоверность 3)  [5D79E5E7], AccurateRip вернул [368D1B27]
Трек 11  точность не определена (достоверность 3)  [7EF9B4D5], AccurateRip вернул [AAA3BDF5]
Трек 12  точность не определена (достоверность 3)  [FEC22C66], AccurateRip вернул [1C0EE0E6]
Трек 13  точность не определена (достоверность 3)  [9E0535BC], AccurateRip вернул [E0FB8C9C]
Трек 14  точность не определена (достоверность 2)  [DB16250D], AccurateRip вернул [4BFB244D]
 
Ни один трек не прошёл проверки на точность
В вашей базе может быть иной вариант штамповки диска

Конец отчёта

Страница 1 из 1

new_topic  reply_topic

Текущее время: 25-Янв 02:44
Часовой пояс: GMT + 4

m Сделано с любовью PR-CY.ru Каталог webplus.info