Вход на сайт

Имя:
Пароль:

· Забыли пароль?
logo
Портал Форум
Регистрация Вход


new_topic  reply_topic

  (Pop, Ballad) Various Artists - Royal Gallery Romantic Paradise 1994, APE (image + .cue), lossless

pic
Год выпуска: 1994
Производитель: Russia
Жанр: Pop, Ballad
Номер #: 74324 500906 Квадро Диск
Продолжительность: CD 1 73:11 CD 2 71:40

Тип издания: сборник
Аудио кодек: APE
Тип рипа: (image + .cue)
Битрейт аудио: lossless

Треклист:

CD 1
01. Louis Armstrong - Hello Dolly
02. Belinda Carlisle - California
03. Joe Dollan - Lady In Blue
04. No Doubt - Don' t Speak
05. Carlos Santana - Europa
06. Dianna Russel - Paradise
07. The Beloved - Sweet Harmony
08. Andriano Celentano - Quel Punto
09. R. Laurence - Africa
10. Dire Straits - Sultans Of Swing
11. John Lee Hooker - Chill Out
12. Mariah Carey - Without You
13. Terence Trent D' Arby - Sing You Name
14. Madonna - You' ll See
15. Ocarina - Mystical Force
16. Taco - Puttin On The Ritz
17. Teach In - I' m Alone
18. Wet Wet Wet - Love Is All Around

CD 2
01. Ray Charles - Hit The Road Jack
02. Mylene Farmer - California
03. Zucchero - Senza Una Donna
04. Eurytmics - Miracle Of Love
05. Richard Clyderman - Fur Elise
06. Salvatore Adamo - Tombe La Neige
07. Kylie Minogue - Confile In Me
08. TJ White - Let The Healing Begin
09. Dana Gilespie - Where Blue Begins
10. Anne Lennox - A Whiter Shade Of Pale
11. Del Shanon - Runaway
12. Bangles - Eternal Flame
13. Urge Overkill - Girl, You' ll Be A Woman Soon
14. Olive - You' re Not Alone
15. Diego Madena - Song Of Baby Jane
16. Billy Joel - A Matter Of Trust
17. Puff Daddy & Faith Evans - I' ll Be Missing You
18. Troggs - Love Is All Around

Код:

Exact Audio Copy V0.99 prebeta 5 from 4. May 2009

Отчёт EAC об извлечении, выполненном 11. ноября 2013, 13:48

Royal  Gallery / Romantic  Paradise  ( CD 1 )

Дисковод: SONY    CD-RW  CRX230EE   Adapter: 0  ID: 1

Режим чтения                 : Достоверность
Использование точного потока : Да
Отключение кэша аудио        : Да
Использование указателей C2  : Нет

Коррекция смещения при чтении                     : 6
Способность читать области Lead-in и Lead-out     : Нет
Заполнение пропущенных сэмплов тишиной            : Да
Удаление блоков с тишиной в начале и конце        : Нет
При вычислениях CRC использовались нулевые сэмплы : Да
Интерфейс                                         : Встроенный Win32-интерфейс для Win NT/2000

Выходной формат          : Monkey's Audio (без потерь)
Выбранный битрейт        : Extra High Lossless Compression
Качество                 : Высокий
Добавление ID3-тэга      : Нет
Утилита сжатия           : C:\Program Files (x86)\Monkey's Audio\MAC.exe
Дополнительные параметры : -w "Artist=%a" -w "Title=%t" -w "Album=%g" -w "Year=%y" -w "Track=%n" -w "Genre=%m" -h %s %d

TOC извлечённого CD

     Трек |   Старт  | Длительность | Начальный сектор | Конечный сектор
    ---------------------------------------------------------------------
       1  |  0:00.00 |    2:25.04   |           0      |      10878     
       2  |  2:25.04 |    2:59.02   |       10879      |      24305     
       3  |  5:24.06 |    3:05.55   |       24306      |      38235     
       4  |  8:29.61 |    4:23.41   |       38236      |      58001     
       5  | 12:53.27 |    3:22.64   |       58002      |      73215     
       6  | 16:16.16 |    3:52.48   |       73216      |      90663     
       7  | 20:08.64 |    5:06.10   |       90664      |     113623     
       8  | 25:14.74 |    5:27.73   |      113624      |     138221     
       9  | 30:42.72 |    3:28.07   |      138222      |     153828     
      10  | 34:11.04 |    5:47.64   |      153829      |     179917     
      11  | 39:58.68 |    4:44.28   |      179918      |     201245     
      12  | 44:43.21 |    3:36.10   |      201246      |     217455     
      13  | 48:19.31 |    4:31.43   |      217456      |     237823     
      14  | 52:50.74 |    4:36.44   |      237824      |     258567     
      15  | 57:27.43 |    3:57.44   |      258568      |     276386     
      16  | 61:25.12 |    4:42.17   |      276387      |     297553     
      17  | 66:07.29 |    2:53.07   |      297554      |     310535     
      18  | 69:00.36 |    4:11.12   |      310536      |     329372     

Характеристики диапазона извлечения и сообщения об ошибках

Выбранный диапазон

     Имя файла D:\Bit Torrent\Новая папка\Royal  Gallery - Romantic  Paradise\Royal  Gallery - Romantic  Paradise  ( CD 1 )\Tau  Analyzer\Royal  Gallery - Romantic  Paradise  ( CD 1 ).wav

     Пиковый уровень 100.0 %
     Качество диапазона 100.0 %
     CRC теста CE401F24
     CRC копии CE401F24
     Копирование... OK

Ошибок не произошло

 
AccurateRip: сводка
 
Трек  1  нет в базе данных
Трек  2  нет в базе данных
Трек  3  нет в базе данных
Трек  4  нет в базе данных
Трек  5  нет в базе данных
Трек  6  нет в базе данных
Трек  7  нет в базе данных
Трек  8  нет в базе данных
Трек  9  нет в базе данных
Трек 10  нет в базе данных
Трек 11  нет в базе данных
Трек 12  нет в базе данных
Трек 13  нет в базе данных
Трек 14  нет в базе данных
Трек 15  нет в базе данных
Трек 16  нет в базе данных
Трек 17  нет в базе данных
Трек 18  нет в базе данных
 
Ни одного трека нет в базе AccurateRip

Конец отчёта

Код:

Exact Audio Copy V0.99 prebeta 5 from 4. May 2009

Отчёт EAC об извлечении, выполненном 8. ноября 2013, 15:39

Royal  Gallery / Romantic  Paradise  ( CD 2 )

Дисковод: ASUS    DRW-2014L1T   Adapter: 5  ID: 0

Режим чтения                 : Достоверность
Использование точного потока : Да
Отключение кэша аудио        : Да
Использование указателей C2  : Нет

Коррекция смещения при чтении                     : 6
Способность читать области Lead-in и Lead-out     : Нет
Заполнение пропущенных сэмплов тишиной            : Да
Удаление блоков с тишиной в начале и конце        : Нет
При вычислениях CRC использовались нулевые сэмплы : Да
Интерфейс                                         : Встроенный Win32-интерфейс для Win NT/2000

Выходной формат          : Monkey's Audio (без потерь)
Выбранный битрейт        : Extra High Lossless Compression
Качество                 : Высокий
Добавление ID3-тэга      : Нет
Утилита сжатия           : C:\Program Files (x86)\Monkey's Audio\MAC.exe
Дополнительные параметры : -w "Artist=%a" -w "Title=%t" -w "Album=%g" -w "Year=%y" -w "Track=%n" -w "Genre=%m" -h %s %d

TOC извлечённого CD

     Трек |   Старт  | Длительность | Начальный сектор | Конечный сектор
    ---------------------------------------------------------------------
       1  |  0:00.00 |    1:58.10   |           0      |       8859     
       2  |  1:58.10 |    4:59.66   |        8860      |      31350     
       3  |  6:58.01 |    4:29.04   |       31351      |      51529     
       4  | 11:27.05 |    4:36.09   |       51530      |      72238     
       5  | 16:03.14 |    2:26.02   |       72239      |      83190     
       6  | 18:29.16 |    3:10.02   |       83191      |      97442     
       7  | 21:39.18 |    5:51.73   |       97443      |     123840     
       8  | 27:31.16 |    4:42.23   |      123841      |     145013     
       9  | 32:13.39 |    4:39.36   |      145014      |     165974     
      10  | 36:53.00 |    5:17.74   |      165975      |     189823     
      11  | 42:10.74 |    2:26.14   |      189824      |     200787     
      12  | 44:37.13 |    3:54.14   |      200788      |     218351     
      13  | 48:31.27 |    3:10.74   |      218352      |     232675     
      14  | 51:42.26 |    4:32.32   |      232676      |     253107     
      15  | 56:14.58 |    3:25.46   |      253108      |     268528     
      16  | 59:40.29 |    4:09.02   |      268529      |     287205     
      17  | 63:49.31 |    5:07.72   |      287206      |     310302     
      18  | 68:57.28 |    2:42.57   |      310303      |     322509     

Характеристики диапазона извлечения и сообщения об ошибках

Выбранный диапазон

     Имя файла D:\Bit Torrent\Новая папка\Royal  Gallery - Romantic  Paradise\Royal  Gallery - Romantic  Paradise  ( CD 2 )\Royal  Gallery - Romantic  Paradise  ( CD 2 ).wav

     Пиковый уровень 100.0 %
     Качество диапазона 100.0 %
     CRC теста A4443418
     CRC копии A4443418
     Копирование... OK

Ошибок не произошло

 
AccurateRip: сводка
 
Трек  1  нет в базе данных
Трек  2  нет в базе данных
Трек  3  нет в базе данных
Трек  4  нет в базе данных
Трек  5  нет в базе данных
Трек  6  нет в базе данных
Трек  7  нет в базе данных
Трек  8  нет в базе данных
Трек  9  нет в базе данных
Трек 10  нет в базе данных
Трек 11  нет в базе данных
Трек 12  нет в базе данных
Трек 13  нет в базе данных
Трек 14  нет в базе данных
Трек 15  нет в базе данных
Трек 16  нет в базе данных
Трек 17  нет в базе данных
Трек 18  нет в базе данных
 
Ни одного трека нет в базе AccurateRip

Конец отчёта
shutov12
спасибо за отличные песни, приеду, разбавлю краски
Alex2GB
Давай, давай. Добавь что нить для разнообразия.

Страница 1 из 1

new_topic  reply_topic

Текущее время: 18-Янв 11:19
Часовой пояс: GMT + 4

m Сделано с любовью PR-CY.ru Каталог webplus.info