Вход на сайт

Имя:
Пароль:

· Забыли пароль?
logo
Портал Форум
Регистрация Вход


new_topic  reply_topic

  (Europop) Five - Live (Video Music for PC) 2000, DivX Video

Оригинальное название: Five - Live (Video Music for PC)
pic
Страна: Великобритания
Год выпуска: 2000
Жанр: Europop
Продолжительность: 01:18:08

Перевод: Отсутствует
Режиссер: Неизвестен
В ролях: Jason Paul Brown, Richard Breen, Richard Neville, Scott Robinson, Sean Conlon

Описание: концерт в Манчестере

Треклист:
01. Battlestar
02. Shake
03. Everybody Get Up
04. When The Light Go Out
05. It's The Things You Do
06. Got The Feelin'
07. Until The Time Is Through
08. Slam Dunk The Funk
09. If Ya Gettin' Down
10. Serious
11. Two Sides To Every Story
12. Don't Wanna Let You Go
13. Invincible
14. Keep On Movin'
15. We Will Rock You


Формат: AVI
Качество: DivX Video
Видео кодек: DivX
Аудио кодек: MP3
Видео: DivX 3 512x288 25fps 1 021 Kbps
Аудио: MP3 48000Hz stereo 192kbps

Доп. информация:
General
Complete name : J:\....\Five - Live (Video Music for PC) 2000, VideoPC (RU)\VIDEOOUT.AVI
Format : AVI
Format/Info : Audio Video Interleave
File size : 683 MiB
Duration : 1h 18mn
Overall bit rate : 1 223 Kbps
Writing library : VirtualDub build 12903/release

Video
ID : 0
Format : MPEG-4 Visual
Codec ID : DIV3
Codec ID/Hint : DivX 3 Low
Duration : 1h 18mn
Bit rate : 1 021 Kbps
Width : 512 pixels
Height : 288 pixels
Display aspect ratio : 16:9
Frame rate : 25.000 fps
Color space : YUV
Chroma subsampling : 4:2:0
Bit depth : 8 bits
Compression mode : Lossy
Bits/(Pixel*Frame) : 0.277
Stream size : 571 MiB (84%)

Audio
ID : 1
Format : MPEG Audio
Format version : Version 1
Format profile : Layer 3
Mode : Joint stereo
Mode extension : MS Stereo
Codec ID : 55
Codec ID/Hint : MP3
Duration : 1h 18mn
Bit rate mode : Constant
Bit rate : 192 Kbps
Channel count : 2 channels
Sampling rate : 48.0 KHz
Compression mode : Lossy
Stream size : 107 MiB (16%)
Alignment : Split accross interleaves
Interleave, duration : 40 ms (1.00 video frame)
Interleave, preload duration : 500 ms
pic

Страница 1 из 1

new_topic  reply_topic

Текущее время: 20-Июн 00:07
Часовой пояс: GMT + 4

m Сделано с любовью PR-CY.ru Каталог webplus.info