Вход на сайт

Имя:
Пароль:

· Забыли пароль?
logo
Портал Форум
Регистрация Вход


new_topic  reply_topic

  (Hip Hop) Eminem - The Marshall Mathers LP (Album, Limited Edition) 2000, FLAC (image+.cue), lossless

pic
Год выпуска: 2000
Страна: США
Производитель: Европа
Жанр: Hip Hop
Номер #: 490 629-2
Продолжительность: 01:19:22

Тип издания: альбом
Аудио кодек: FLAC
Тип рипа: (image+.cue)
Битрейт аудио: lossless

Треклист:

01. Public Service Announcement 2000 (0:27)
02. Kill You (4:26)
03. Stan (6:46) feat. Dido
04. Paul (Skit) (0:11)
05. Who Knew (3:50)
06. Steve Berman (0:55)
07. The Way I Am (4:51)
08. The Real Slim Shady (4:47)
09. Remember Me (3:38) feat. RBX & Sticky Fingaz
10. I'm Back (5:12)
11. Marshall Mathers (5:23)
12. Ken Kaniff (Skit) (1:04)
13. Drug Ballad (5:02)
14. Amityville (4:17) feat. Bizarre
15. Bitch Please II (4:51) feat. Dr. Dre with Snoop Dogg incl. Xzibit & Nate Dogg
16. Kim (6:20)
17. Under The Influence (5:25) feat. D-12
18. Criminal (5:16)
19. Guilty Conscience (3:19) feat. Dr. Dre
20. Role Model (3:25)


Доп. информация: http://www.discogs.com/Eminem-The-Marshall-Mathers-LP/master/12236

Код:

Exact Audio Copy V1.0 beta 3 from 29. August 2011

Отчёт EAC об извлечении, выполненном 10. января 2014, 19:09

Eminem / The Marshall Mathers LP (Album, LE)

Дисковод: Optiarc DVD RW AD-7261S   Adapter: 4  ID: 1

Режим чтения                 : Достоверность
Использование точного потока : Да
Отключение кэша аудио        : Да
Использование указателей C2  : Нет

Коррекция смещения при чтении                     : 48
Способность читать области Lead-in и Lead-out     : Нет
Заполнение пропущенных сэмплов тишиной            : Да
Удаление блоков с тишиной в начале и конце        : Нет
При вычислениях CRC использовались нулевые сэмплы : Да
Интерфейс                                         : Встроенный Win32-интерфейс для Win NT/2000

Выходной формат          : Пользовательский кодировщик
Выбранный битрейт        : 768 kBit/s
Качество                 : Высокий
Добавление ID3-тега      : Нет
Утилита сжатия           : C:\Program Files\Exact Audio Copy\FLAC\FLAC.EXE
Дополнительные параметры : -6 -V -T "ARTIST=%artist%" -T "TITLE=%title%" -T "ALBUM=%albumtitle%" -T "DATE=%year%" -T "TRACKNUMBER=%tracknr%" -T "GENRE=%genre%" -T "COMMENT=%comment%" -T "BAND=%albuminterpret%" -T "ALBUMARTIST=%albuminterpret%" -T "COMPOSER=%composer%" %haslyrics%--tag-from-file=LYRICS="%lyricsfile%"%haslyrics% -T "DISCNUMBER=%cdnumber%" -T "TOTALDISCS=%totalcds%" -T "TOTALTRACKS=%numtracks%" %hascover%--picture="%coverfile%"%hascover% %source% -o %dest%

TOC извлечённого CD

     Трек |   Старт  | Длительность | Начальный сектор | Конечный сектор
    ---------------------------------------------------------------------
       1  |  0:00.00 |    0:27.00   |           0      |       2024     
       2  |  0:27.00 |    4:26.17   |        2025      |      21991     
       3  |  4:53.17 |    6:45.69   |       21992      |      52435     
       4  | 11:39.11 |    0:10.47   |       52436      |      53232     
       5  | 11:49.58 |    3:49.42   |       53233      |      70449     
       6  | 15:39.25 |    0:54.43   |       70450      |      74542     
       7  | 16:33.68 |    4:51.19   |       74543      |      96386     
       8  | 21:25.12 |    4:46.37   |       96387      |     117873     
       9  | 26:11.49 |    3:38.22   |      117874      |     134245     
      10  | 29:49.71 |    5:12.06   |      134246      |     157651     
      11  | 35:02.02 |    5:22.57   |      157652      |     181858     
      12  | 40:24.59 |    1:03.37   |      181859      |     186620     
      13  | 41:28.21 |    5:02.07   |      186621      |     209277     
      14  | 46:30.28 |    4:16.45   |      209278      |     228522     
      15  | 50:46.73 |    4:50.37   |      228523      |     250309     
      16  | 55:37.35 |    6:19.54   |      250310      |     278788     
      17  | 61:57.14 |    5:24.40   |      278789      |     303128     
      18  | 67:21.54 |    5:15.74   |      303129      |     326827     
      19  | 72:37.53 |    3:19.25   |      326828      |     341777     
      20  | 75:57.03 |    3:25.30   |      341778      |     357182     

Характеристики диапазона извлечения и сообщения об ошибках

Выбранный диапазон

     Имя файла F:\D.L.C\Eminem - The Marshall Mathers LP (Album, LE).wav

     Пиковый уровень 100.0 %
     Скорость извлечения 4.6 X
     Качество диапазона 100.0 %
     CRC теста 20ED06D2
     CRC копии 20ED06D2
     Копирование... OK

Ошибок не произошло

 
AccurateRip: сводка
 
Трек  1  отсутствует в базе данных
Трек  2  отсутствует в базе данных
Трек  3  отсутствует в базе данных
Трек  4  отсутствует в базе данных
Трек  5  отсутствует в базе данных
Трек  6  отсутствует в базе данных
Трек  7  отсутствует в базе данных
Трек  8  отсутствует в базе данных
Трек  9  отсутствует в базе данных
Трек 10  отсутствует в базе данных
Трек 11  отсутствует в базе данных
Трек 12  отсутствует в базе данных
Трек 13  отсутствует в базе данных
Трек 14  отсутствует в базе данных
Трек 15  отсутствует в базе данных
Трек 16  отсутствует в базе данных
Трек 17  отсутствует в базе данных
Трек 18  отсутствует в базе данных
Трек 19  отсутствует в базе данных
Трек 20  отсутствует в базе данных
 
Ни одного трека нет в базе AccurateRip

Конец отчёта

==== Контрольная сумма отчёта D7841E1AF5282D7F8ED248F7A849B49CBF21DC8696F60F426C3829D73E4BF8DE ====

Страница 1 из 1

new_topic  reply_topic

Текущее время: 23-Окт 14:09
Часовой пояс: GMT + 4

m Сделано с любовью PR-CY.ru Каталог webplus.info