Вход на сайт

Имя:
Пароль:

· Забыли пароль?
logo
Портал Форум
Регистрация Вход


new_topic  reply_topic

  (Euro House, Eurodance) Captain Hollywood Project - More And More (Remixes) - 1992, FLAC (image + .cue) lossless

pic
Год выпуска: 1992
Производитель: Германия
Жанр: Euro House, Eurodance
Номер #: INT 825.970 (Blow Up)
Продолжительность: 0:17:24

Тип издания: сингл
Аудио кодек: FLAC
Тип рипа: (image + .cue)
Битрейт аудио: lossless

Треклист:

  1. More And More (Karizma Remix)
  2. More And More (Hollywood Remix)
  3. More And More (Original Single Version)

Код:

Exact Audio Copy V0.99 prebeta 5 from 4. May 2009

Отчёт EAC об извлечении, выполненном 13. февраля 2014, 14:00

Captain Hollywood Project / More And More (Remixes)

Дисковод: TSSTcorpCDDVDW SH-224BB   Adapter: 3  ID: 0

Режим чтения                 : Достоверность
Использование точного потока : Да
Отключение кэша аудио        : Да
Использование указателей C2  : Нет

Коррекция смещения при чтении                     : 6
Способность читать области Lead-in и Lead-out     : Нет
Заполнение пропущенных сэмплов тишиной            : Да
Удаление блоков с тишиной в начале и конце        : Нет
При вычислениях CRC использовались нулевые сэмплы : Да
Интерфейс                                         : Встроенный Win32-интерфейс для Win NT/2000

Выходной формат : Внутренние WAV-операции
Формат сэмплов  : 44.100 Гц; 16 бит; стерео

TOC извлечённого CD

     Трек |   Старт  | Длительность | Начальный сектор | Конечный сектор
    ---------------------------------------------------------------------
       1  |  0:00.00 |    7:00.25   |           0      |      31524     
       2  |  7:00.25 |    6:13.22   |       31525      |      59521     
       3  | 13:13.47 |    4:11.10   |       59522      |      78356     

Характеристики диапазона извлечения и сообщения об ошибках

Выбранный диапазон

     Имя файла K:\Зарубежная Поп-музыка\Captain Hollywood Project (lossless)\Captain Hollywood Project - More And More (Remixes) (1992)\Captain Hollywood Project - More And More (Remixes).wav

     Пиковый уровень 97.5 %
     Качество диапазона 100.0 %
     CRC теста B5785764
     CRC копии B5785764
     Копирование... OK

Ошибок не произошло

 
AccurateRip: сводка
 
Трек  1  точное извлечение (доверие 10)  [1A659356]
Трек  2  точное извлечение (доверие 10)  [C3F1DAB6]
Трек  3  точное извлечение (доверие 10)  [005CBDBD]
 
Все треки извлечены точно

Конец отчёта

Страница 1 из 1

new_topic  reply_topic

Текущее время: 25-Янв 02:22
Часовой пояс: GMT + 4

m Сделано с любовью PR-CY.ru Каталог webplus.info