Вход на сайт

Имя:
Пароль:

· Забыли пароль?
logo
Портал Форум
Регистрация Вход


new_topic  reply_topic

  (Euro House) Highland - Solo Tu - 2000, FLAC (image + .cue) lossless

pic
Год выпуска: 2000
Производитель: Германия
Жанр: Euro House
Номер #: 8573-84722-2 (EastWest)
Продолжительность: 0:23:02

Тип издания: сингл
Аудио кодек: FLAC
Тип рипа: (image + .cue)
Битрейт аудио: lossless

Треклист:

  1. Solo Tu (Radio Mix)
  2. Solo Tu (X-Mod Radio Mix)
  3. Solo Tu (Extended Mix)
  4. Solo Tu (Club Mix)
  5. Solo Tu (Radio Mix Instrumental)

Код:

Exact Audio Copy V0.99 prebeta 5 from 4. May 2009

Отчёт EAC об извлечении, выполненном 13. февраля 2014, 17:58

Highland / Solo Tu

Дисковод: TSSTcorpCDDVDW SH-224BB   Adapter: 3  ID: 0

Режим чтения                 : Достоверность
Использование точного потока : Да
Отключение кэша аудио        : Да
Использование указателей C2  : Нет

Коррекция смещения при чтении                     : 6
Способность читать области Lead-in и Lead-out     : Нет
Заполнение пропущенных сэмплов тишиной            : Да
Удаление блоков с тишиной в начале и конце        : Нет
При вычислениях CRC использовались нулевые сэмплы : Да
Интерфейс                                         : Встроенный Win32-интерфейс для Win NT/2000

Выходной формат : Внутренние WAV-операции
Формат сэмплов  : 44.100 Гц; 16 бит; стерео

TOC извлечённого CD

     Трек |   Старт  | Длительность | Начальный сектор | Конечный сектор
    ---------------------------------------------------------------------
       1  |  0:00.00 |    3:45.28   |           0      |      16902     
       2  |  3:45.28 |    4:02.07   |       16903      |      35059     
       3  |  7:47.35 |    5:08.47   |       35060      |      58206     
       4  | 12:56.07 |    6:23.01   |       58207      |      86932     
       5  | 19:19.08 |    3:43.18   |       86933      |     103675     

Характеристики диапазона извлечения и сообщения об ошибках

Выбранный диапазон

     Имя файла K:\Зарубежная Поп-музыка\Highland (lossless)\Highland - Solo Tu (2000)\Highland - Solo Tu.wav

     Подозрительная позиция 0:00:00 - 0:00:06

     Пиковый уровень 100.0 %
     Качество диапазона 99.0 %
     CRC теста 77F22B66
     CRC копии DCE6D94D
     Копирование завершено

Были ошибки

 
AccurateRip: сводка
 
Трек  1  точность не определена (достоверность 3)  [B46C6EF8], AccurateRip вернул [97F64C0C]
Трек  2  точное извлечение (доверие 3)  [912EAB97]
Трек  3  точное извлечение (доверие 3)  [ED18138F]
Трек  4  точное извлечение (доверие 3)  [3B3AE55F]
Трек  5  точное извлечение (доверие 3)  [79D7C785]
 
 4 трек(и) скопированы точно
 1 трек(и) не удалось проверить на точность

Некоторые треки не прошли проверку на точность

Конец отчёта
Спасибо!

Страница 1 из 1

new_topic  reply_topic

Текущее время: 25-Янв 02:25
Часовой пояс: GMT + 4

m Сделано с любовью PR-CY.ru Каталог webplus.info