Вход на сайт

Имя:
Пароль:

· Забыли пароль?
logo
Портал Форум
Регистрация Вход


new_topic  reply_topic

  (Freestyle) Body Base Feat. Alexander Thompson - My Only Desire (CDM) 1996, FLAC (image + .cue), lossless

pic
Год выпуска: 1996
Производитель: Germany
Жанр: Freestyle
Номер #: 0630 14493-2 (Maad Records)
Продолжительность: 00:25:41

Тип издания: сингл
Аудио кодек: FLAC
Тип рипа: (image + .cue)
Битрейт аудио: lossless

Треклист:

01. My Only Desire (Single Mix) 03:46
02. My Only Desire (Freestyle Club Mix) 06:22
03. My Only Desire (Bailay's Groove Mix) 05:45
04. My Only Desire (N.Y. House Mix) 05:45
05. My Only Desire (Unplugged 7'' Mix) 03:48

Доп. информация: Accurate Rip + Test&Copy + Сканы (600 dpi, PNG) прилагаются.

Код:

Exact Audio Copy V1.0 beta 3 from 29. August 2011

Отчёт EAC об извлечении, выполненном 15. февраля 2014, 15:24

Body Base Feat. Alexander Thompson / My Only Desire (CDM)

Дисковод: BTC     BDV-316E   Adapter: 8  ID: 0

Режим чтения                 : Достоверность
Использование точного потока : Да
Отключение кэша аудио        : Да
Использование указателей C2  : Нет

Коррекция смещения при чтении                     : 0
Способность читать области Lead-in и Lead-out     : Нет
Заполнение пропущенных сэмплов тишиной            : Да
Удаление блоков с тишиной в начале и конце        : Нет
При вычислениях CRC использовались нулевые сэмплы : Да
Интерфейс                                         : Встроенный Win32-интерфейс для Win NT/2000

Выходной формат          : Пользовательский кодировщик
Выбранный битрейт        : 128 kBit/s
Качество                 : Высокий
Добавление ID3-тега      : Нет
Утилита сжатия           : C:\Program Files (x86)\Exact Audio Copy\Flac\flac.exe
Дополнительные параметры : -V -8 %source%

TOC извлечённого CD

     Трек |   Старт  | Длительность | Начальный сектор | Конечный сектор
    ---------------------------------------------------------------------
       1  |  0:00.00 |    3:49.47   |           0      |      17221     
       2  |  3:49.47 |    6:25.15   |       17222      |      46111     
       3  | 10:14.62 |    5:47.58   |       46112      |      72194     
       4  | 16:02.45 |    5:50.30   |       72195      |      98474     
       5  | 21:53.00 |    3:49.00   |       98475      |     115649     

Характеристики диапазона извлечения и сообщения об ошибках

Выбранный диапазон

     Имя файла C:\Users\Home\Documents\Мои принятые файлы\Body Base Feat. Alexander Thompson - My Only Desire (CDM).wav

     Пиковый уровень 98.8 %
     Скорость извлечения 3.4 X
     Качество диапазона 100.0 %
     CRC теста 92827C6A
     CRC копии 92827C6A
     Копирование... OK

Ошибок не произошло

 
AccurateRip: сводка
 
Трек  1  : извлечено точно (доверие 2)  [80C185F8]  (AR v1)
Трек  2  : извлечено точно (доверие 2)  [285C1F6E]  (AR v1)
Трек  3  : извлечено точно (доверие 2)  [4B5486CE]  (AR v1)
Трек  4  : извлечено точно (доверие 2)  [0381B41A]  (AR v1)
Трек  5  : извлечено точно (доверие 2)  [E45D6500]  (AR v1)
 
Все треки извлечены точно

Конец отчёта

==== Контрольная сумма отчёта 5C9205FFB1A5CA179F4DAD42CB6C8CBA8F8CB1BCC90903432DF225736412B70A ====

Цитата:

Коррекция смещения при чтении : 0
Очень интересно получается конечно, впервые такое вижу, что по базе такой параметр.

Alex2GB писал(а):

Цитата:

Коррекция смещения при чтении : 0
Очень интересно получается конечно, впервые такое вижу, что по базе такой параметр.
pic
Один из Дисков

Страница 1 из 1

new_topic  reply_topic

Текущее время: 23-Окт 13:59
Часовой пояс: GMT + 4

m Сделано с любовью PR-CY.ru Каталог webplus.info