Вход на сайт

Имя:
Пароль:

· Забыли пароль?
logo
Портал Форум
Регистрация Вход


new_topic  reply_topic

  (House) VA - DJ Player Vol. 11 2010, WAV (tracks + .cue), lossless

pic
Год выпуска: 2010
Страна: Italy
Жанр: House
Номер #: DPR 087 (Disco Planet Records)
Продолжительность: 01:08:03

Тип издания: сборник
Аудио кодек: WAV
Тип рипа: (tracks + .cue)
Битрейт аудио: lossless

Треклист:

01. Seight - Turn It Up (Club Mix) [0:06:02.24]
02. Fabio De Venere - Ex Cooke (FDV Clubbers Version) [0:05:21.68]
03. MC Mario Feat. Datdude - My Generation (WTF Remix) [0:06:51.23]
04. Macho - Keep On Dance (Sanny J Tunez Mix) [0:04:35.21]
05. Dirty Kidz Feat. Shalya & Don Seydina - Ole Ola (Christian Sims & Fontana Remix) [0:04:54.55]
06. Rene Rodrigezz Feat. Sivana Reese - More & More (Original Extended Mix) [0:04:52.47]
07. Beat Funkers - Left & Right (Original Mix) [0:06:24.11]
08. DJ Sanny J Feat. Konrad - Come Up With Me (DJ Sanny J 2010 Mix) [0:06:44.22]
09. Simone Pennisi - Jump With The Kick (House Victim Re-Action) [0:05:50.44]
10. Kid Brothers - Jump & Down (Club Mix) [0:06:13.37]
11. Hit Aliens - El Pipe De Oro (Danilo Orsini & Piero Toti Remix) [0:04:47.69]
12. Russian Bastards - Melody Of Love (Thomas East Remix) [0:05:24.35]

Код:

Exact Audio Copy V1.0 beta 3 from 29. August 2011

EAC extraction logfile from 26. February 2014, 21:38

Various / DJ Player Vol.11

Used drive  : PIONEER DVD-RW  DVR-219L   Adapter: 5  ID: 0

Read mode               : Secure
Utilize accurate stream : Yes
Defeat audio cache      : No
Make use of C2 pointers : No

Read offset correction                      : 6
Overread into Lead-In and Lead-Out          : No
Fill up missing offset samples with silence : Yes
Delete leading and trailing silent blocks   : No
Null samples used in CRC calculations       : Yes
Used interface                              : Native Win32 interface for Win NT & 2000
Gap handling                                : Appended to previous track

Used output format              : User Defined Encoder
Selected bitrate                : 1024 kBit/s
Quality                         : High
Add ID3 tag                     : No
Command line compressor         : C:\Program Files\Exact Audio Copy\FLAC\FLAC.EXE
Additional command line options : -6 -V -T "ARTIST=%artist%" -T "TITLE=%title%" -T "ALBUM=%albumtitle%" -T "DATE=%year%" -T "TRACKNUMBER=%tracknr%" -T "GENRE=%genre%" -T "COMMENT=%comment%" -T "BAND=%albuminterpret%" -T "ALBUMARTIST=%albuminterpret%" -T "COMPOSER=%composer%" %haslyrics%--tag-from-file=LYRICS="%lyricsfile%"%haslyrics% -T "DISCNUMBER=%cdnumber%" -T "TOTALDISCS=%totalcds%" -T "TOTALTRACKS=%numtracks%" %hascover%--picture="%coverfile%"%hascover% %source% -o %dest%

TOC of the extracted CD

     Track |   Start  |  Length  | Start sector | End sector
    ---------------------------------------------------------
        1  |  0:00.00 |  6:02.24 |         0    |    27173   
        2  |  6:02.24 |  5:21.68 |     27174    |    51316   
        3  | 11:24.17 |  6:51.23 |     51317    |    82164   
        4  | 18:15.40 |  4:35.21 |     82165    |   102810   
        5  | 22:50.61 |  4:54.55 |    102811    |   124915   
        6  | 27:45.41 |  4:52.47 |    124916    |   146862   
        7  | 32:38.13 |  6:24.11 |    146863    |   175673   
        8  | 39:02.24 |  6:44.22 |    175674    |   205995   
        9  | 45:46.46 |  5:50.44 |    205996    |   232289   
       10  | 51:37.15 |  6:13.37 |    232290    |   260301   
       11  | 57:50.52 |  4:47.69 |    260302    |   281895   
       12  | 62:38.46 |  5:24.35 |    281896    |   306230   

Track  1

     Filename E:\VA - DJ Player Vol.11\01. Seight - Turn It Up (Club Mix).wav

     Pre-gap length  0:00:02.00

     Peak level 99.8 %
     Extraction speed 4.5 X
     Track quality 100.0 %
     Test CRC 65B39589
     Copy CRC 65B39589
     Track not present in AccurateRip database
     Copy OK

Track  2

     Filename E:\VA - DJ Player Vol.11\02. Fabio De Venere - Ex Cooke (FDV Clubbers Version).wav

     Pre-gap length  0:00:02.00

     Peak level 98.8 %
     Extraction speed 4.4 X
     Track quality 100.0 %
     Test CRC 5EDB2C32
     Copy CRC 5EDB2C32
     Track not present in AccurateRip database
     Copy OK

Track  3

     Filename E:\VA - DJ Player Vol.11\03. MC Mario Feat. Datdude - My Generation (WTF Remix).wav

     Pre-gap length  0:00:02.00

     Peak level 99.9 %
     Extraction speed 4.4 X
     Track quality 100.0 %
     Test CRC DC6EBA10
     Copy CRC DC6EBA10
     Track not present in AccurateRip database
     Copy OK

Track  4

     Filename E:\VA - DJ Player Vol.11\04. Macho - Keep On Dance (Sanny J Tunez Mix).wav

     Pre-gap length  0:00:02.00

     Peak level 99.0 %
     Extraction speed 4.3 X
     Track quality 100.0 %
     Test CRC 7985675C
     Copy CRC 7985675C
     Track not present in AccurateRip database
     Copy OK

Track  5

     Filename E:\VA - DJ Player Vol.11\05. Dirty Kidz Feat. Shalya & Don Seydina - Ole Ola (Christian Sims & Fontana Remix).wav

     Pre-gap length  0:00:02.00

     Peak level 99.8 %
     Extraction speed 4.3 X
     Track quality 100.0 %
     Test CRC 76A47317
     Copy CRC 76A47317
     Track not present in AccurateRip database
     Copy OK

Track  6

     Filename E:\VA - DJ Player Vol.11\06. Rene Rodrigezz Feat. Sivana Reese - More & More (Original Extended Mix).wav

     Pre-gap length  0:00:02.00

     Peak level 99.9 %
     Extraction speed 4.2 X
     Track quality 100.0 %
     Test CRC 72EEE24C
     Copy CRC 72EEE24C
     Track not present in AccurateRip database
     Copy OK

Track  7

     Filename E:\VA - DJ Player Vol.11\07. Beat Funkers - Left & Right (Original Mix).wav

     Pre-gap length  0:00:02.00

     Peak level 99.7 %
     Extraction speed 4.2 X
     Track quality 99.9 %
     Test CRC FD631A94
     Copy CRC FD631A94
     Track not present in AccurateRip database
     Copy OK

Track  8

     Filename E:\VA - DJ Player Vol.11\08. DJ Sanny J Feat. Konrad - Come Up With Me (DJ Sanny J 2010 Mix).wav

     Pre-gap length  0:00:02.00

     Peak level 98.8 %
     Extraction speed 4.3 X
     Track quality 100.0 %
     Test CRC C7C014CE
     Copy CRC C7C014CE
     Track not present in AccurateRip database
     Copy OK

Track  9

     Filename E:\VA - DJ Player Vol.11\09. Simone Pennisi - Jump With The Kick (House Victim Re-Action).wav

     Pre-gap length  0:00:02.00

     Peak level 99.0 %
     Extraction speed 4.2 X
     Track quality 99.9 %
     Test CRC 0688C15E
     Copy CRC 0688C15E
     Track not present in AccurateRip database
     Copy OK

Track 10

     Filename E:\VA - DJ Player Vol.11\10. Kid Brothers - Jump & Down (Club Mix).wav

     Pre-gap length  0:00:02.00

     Peak level 99.8 %
     Extraction speed 4.1 X
     Track quality 99.9 %
     Test CRC 7E8D9D8B
     Copy CRC 7E8D9D8B
     Track not present in AccurateRip database
     Copy OK

Track 11

     Filename E:\VA - DJ Player Vol.11\11. Hit Aliens - El Pipe De Oro (Danilo Orsini & Piero Toti Remix).wav

     Pre-gap length  0:00:02.00

     Peak level 98.8 %
     Extraction speed 4.3 X
     Track quality 100.0 %
     Test CRC 0A95B4C2
     Copy CRC 0A95B4C2
     Track not present in AccurateRip database
     Copy OK

Track 12

     Filename E:\VA - DJ Player Vol.11\12. Russian Bastards - Melody Of Love (Thomas East Remix).wav

     Pre-gap length  0:00:02.00

     Peak level 98.8 %
     Extraction speed 4.3 X
     Track quality 100.0 %
     Test CRC 035E242C
     Copy CRC 035E242C
     Track not present in AccurateRip database
     Copy OK

None of the tracks are present in the AccurateRip database

No errors occurred

End of status report

---- CUETools DB Plugin V2.1.3

[CTDB TOCID: 5D5vPAwVqnPYgjUWuenRZieC.NE-] disk not present in database, Submit result: database access error: 请求被中止: 请求已被取消。

==== Log checksum 54332BB80F54D594FC49F0AC845FD418180B313C8A1F7D3498B21FC9C5F6E134 ====
Дополнительная информация:

По поводу обмена/покупки обращайтесь, пожалуйста, в ЛС.
(If you'd like to exchange/buy single - please send me PM)
Defeat audio cache : No Должно стоять Yes
thank you

Страница 1 из 1

new_topic  reply_topic

Текущее время: 24-Янв 00:56
Часовой пояс: GMT + 4

m Сделано с любовью PR-CY.ru Каталог webplus.info