Вход на сайт

Имя:
Пароль:

· Забыли пароль?
logo
Портал Форум
Регистрация Вход


new_topic  reply_topic

  (Euro House) Tania Evans - Prisoner of Love (La-Da-Di) 1997, FLAC (image + .cue), lossless

pic
Год выпуска: 1997
Страна: Великобритания
Производитель: Германия
Жанр: Euro House
Номер #: COL 664568 2 (Columbia)
Продолжительность: 26:22

Тип издания: сингл
Аудио кодек: WAV
Тип рипа: (image + .cue)
Битрейт аудио: lossless

Треклист:

01. Prisoner of Love (Radio Edit)
02. Prisoner of Love (Love Radio Mix)
03. Prisoner of Love (Extended Club Mix)
04. Prisoner of Love (Love Extended Mix)
05. Prisoner of Love (Buck's Fizz Remix)

Доп. информация: Прошу модераторов поставить зеленый статус данной раздаче

Код:

Exact Audio Copy V1.0 beta 3 from 29. August 2011

Отчёт EAC об извлечении, выполненном 19. июня 2014, 21:57
Tania Evans / Prisoner of Love (La-Da-Di)

Дисковод: _NEC DVD_RW ND-3540A Adapter: 0 ID: 0

Режим чтения : Достоверность
Использование точного потока : Да
Отключение кэша аудио : Да
Использование указателей C2 : Нет

Коррекция смещения при чтении : 48
Способность читать области Lead-in и Lead-out : Нет
Заполнение пропущенных сэмплов тишиной : Да
Удаление блоков с тишиной в начале и конце : Нет
При вычислениях CRC использовались нулевые сэмплы : Да
Интерфейс : Встроенный Win32-интерфейс для Win NT/2000

Выходной формат : Внутренние WAV-операции
Формат сэмплов : 44.100 Гц; 16 бит; стерео

TOC извлечённого CD

Трек | Старт | Длительность | Начальный сектор | Конечный сектор
---------------------------------------------------------------------
1 | 0:00.00 | 3:32.37 | 0 | 15936
2 | 3:32.37 | 4:03.00 | 15937 | 34161
3 | 7:35.37 | 5:10.13 | 34162 | 57424
4 | 12:45.50 | 6:04.12 | 57425 | 84736
5 | 18:49.62 | 7:32.53 | 84737 | 118689

Характеристики диапазона извлечения и сообщения об ошибках

Выбранный диапазон

Имя файла D:\disk D\Music\CD Recordings (Wav format)\Exact Audio Copy\TANIA EVANS (1997) - Prisoner of Love (La-Da-Di)\Tania Evans - Prisoner of Love (La-Da-Di).wav

Пиковый уровень 98.5 %
Скорость извлечения 6.0 X
Качество диапазона 100.0 %
CRC теста A0F22FBD
CRC копии A0F22FBD
Копирование... OK

Ошибок не произошло

Конец отчёта

==== Контрольная сумма отчёта E3836B1D323269D8DDBA266D68B37C37D21D5EC27341BF9FAA0F894CBC66FAAA ====
Добрый день. Вы не зарегистрировали (залили) торрент. Зарегистрируйте пожалуйста в ближайшее время - торрент в каталоге. Иначе "публикация" будет удалена.
direx
Добрый день. Я зарегестрировал торент. Во избежание удаления "публикации" просьба проверить, все ли правильно сделано.

mechanicsense писал(а):

Аудио кодек: FLAC
Вы не упаковали WAV во FLAC архив. В принципе это не обязательно, но тогда и в описании ставим
Аудио кодек: WAV

В остальном всё хорошо
Исправлено!

Страница 1 из 1

new_topic  reply_topic

Текущее время: 16-Дек 06:17
Часовой пояс: GMT + 4

m Сделано с любовью PR-CY.ru Каталог webplus.info