Вход на сайт

Имя:
Пароль:

· Забыли пароль?
logo
Портал Форум
Регистрация Вход


new_topic  reply_topic

  (Euro House) DJ BoBo - Pray 1996, WAV (image + .cue), lossless

pic
Год выпуска: 1996
Страна: Швейцария
Производитель: Германия
Жанр: Euro House
Номер #: EAMS 2338-2 (EAMS)
Продолжительность: 20:45

Тип издания: сингл
Аудио кодек: WAV
Тип рипа: (image + .cue)
Битрейт аудио: lossless

Треклист:

01. Pray (Radio Version)
02. Pray (B&B Remix)
03. Pray (Love to Infinity's Classic Paradise Mix)
04. Pray (Wicked Clu's House Mix)

Доп. информация: Только для группы МЕЛОМАНЫ

Код:

Exact Audio Copy V1.0 beta 3 from 29. August 2011

Отчёт EAC об извлечении, выполненном 11. июня 2014, 21:10

DJ BOBO / Pray

Дисковод: _NEC    DVD_RW ND-3540A   Adapter: 0  ID: 0

Режим чтения                 : Достоверность
Использование точного потока : Да
Отключение кэша аудио        : Да
Использование указателей C2  : Нет

Коррекция смещения при чтении                     : 48
Способность читать области Lead-in и Lead-out     : Нет
Заполнение пропущенных сэмплов тишиной            : Да
Удаление блоков с тишиной в начале и конце        : Нет
При вычислениях CRC использовались нулевые сэмплы : Да
Интерфейс                                         : Встроенный Win32-интерфейс для Win NT/2000

Выходной формат : Внутренние WAV-операции
Формат сэмплов  : 44.100 Гц; 16 бит; стерео

TOC извлечённого CD

     Трек |   Старт  | Длительность | Начальный сектор | Конечный сектор
    ---------------------------------------------------------------------
       1  |  0:00.00 |    3:53.20   |           0      |      17494     
       2  |  3:53.20 |    5:56.17   |       17495      |      44211     
       3  |  9:49.37 |    7:28.35   |       44212      |      77846     
       4  | 17:17.72 |    3:27.38   |       77847      |      93409     

Характеристики диапазона извлечения и сообщения об ошибках

Выбранный диапазон

     Имя файла D:\disk D\Music\CD Recordings (Wav format)\Exact Audio Copy\DJ BOBO (1996) - Pray\DJ BOBO - Pray.wav

     Пиковый уровень 99.0 %
     Скорость извлечения 5.7 X
     Качество диапазона 100.0 %
     CRC теста 2C0A5BC6
     CRC копии 2C0A5BC6
     Копирование... OK

Ошибок не произошло

Конец отчёта

==== Контрольная сумма отчёта 5AFDBB51FA620E77D5F88053B49756AAB5888B4230561ABDE80B02DCF2B4A98E ====

Страница 1 из 1

new_topic  reply_topic

Текущее время: 25-Янв 02:01
Часовой пояс: GMT + 4

m Сделано с любовью PR-CY.ru Каталог webplus.info