Вход на сайт

Имя:
Пароль:

· Забыли пароль?
logo
Портал Форум
Регистрация Вход


new_topic  reply_topic

  (Italo-Disco) The Creatures - L'altro Mondo Studios - 2014, FLAC (image + .cue) lossless

pic
Год выпуска: 2014
Производитель: Россия
Жанр: Italo-Disco
Номер #: SP 0015 (SP records)
Продолжительность: 1:13:40

Тип контента: альбом
Аудио кодек: FLAC
Тип рипа: (image + .cue)
Битрейт аудио: lossless

Треклист:

  1. Starting From Here
  2. Believe In Yourself
  3. Inspiration
  4. Aida
  5. Digital Rebel
  6. The Amazing Run In The Tube

    Bonus Track: Expansion - L'Altro Mondo Studios (1981 Album)
  7. Machine's Drama
  8. Expansion
  9. Dance Of The Silver Girls
  10. Kid Robot Dance
  11. The Other World's Robot

    Bonus Track: Maybe One Day (Maxi Single)
  12. Maybe One Day (Dance Mix)
  13. Inspiration (Remix)

Код:

Exact Audio Copy V0.99 prebeta 5 from 4. May 2009

Отчёт EAC об извлечении, выполненном 30. июня 2014, 1:48

The Creatures / L'altro Mondo Studios

Дисковод: TSSTcorpCDDVDW SH-224BB   Adapter: 3  ID: 0

Режим чтения                 : Достоверность
Использование точного потока : Да
Отключение кэша аудио        : Да
Использование указателей C2  : Нет

Коррекция смещения при чтении                     : 6
Способность читать области Lead-in и Lead-out     : Нет
Заполнение пропущенных сэмплов тишиной            : Да
Удаление блоков с тишиной в начале и конце        : Нет
При вычислениях CRC использовались нулевые сэмплы : Да
Интерфейс                                         : Встроенный Win32-интерфейс для Win NT/2000

Выходной формат : Внутренние WAV-операции
Формат сэмплов  : 44.100 Гц; 16 бит; стерео

TOC извлечённого CD

     Трек |   Старт  | Длительность | Начальный сектор | Конечный сектор
    ---------------------------------------------------------------------
       1  |  0:00.00 |    5:07.42   |           0      |      23066     
       2  |  5:07.42 |    6:23.42   |       23067      |      51833     
       3  | 11:31.09 |    5:29.40   |       51834      |      76548     
       4  | 17:00.49 |    4:33.16   |       76549      |      97039     
       5  | 21:33.65 |    4:13.31   |       97040      |     116045     
       6  | 25:47.21 |    7:11.24   |      116046      |     148394     
       7  | 32:58.45 |    7:19.73   |      148395      |     181392     
       8  | 40:18.43 |    6:35.28   |      181393      |     211045     
       9  | 46:53.71 |    5:55.67   |      211046      |     237737     
      10  | 52:49.63 |    4:03.54   |      237738      |     256016     
      11  | 56:53.42 |    4:49.50   |      256017      |     277741     
      12  | 61:43.17 |    6:17.36   |      277742      |     306052     
      13  | 68:00.53 |    5:39.45   |      306053      |     331522     

Характеристики диапазона извлечения и сообщения об ошибках

Выбранный диапазон

     Имя файла K:\Электронная\The Creatures (lossless)\The Creatures - L'altro Mondo Studios (2014)\The Creatures - L'altro Mondo Studios.wav

     Пиковый уровень 97.7 %
     Качество диапазона 100.0 %
     CRC теста FAF6152F
     CRC копии FAF6152F
     Копирование... OK

Ошибок не произошло

 
AccurateRip: сводка
 
Трек  1  нет в базе данных
Трек  2  нет в базе данных
Трек  3  нет в базе данных
Трек  4  нет в базе данных
Трек  5  нет в базе данных
Трек  6  нет в базе данных
Трек  7  нет в базе данных
Трек  8  нет в базе данных
Трек  9  нет в базе данных
Трек 10  нет в базе данных
Трек 11  нет в базе данных
Трек 12  нет в базе данных
Трек 13  нет в базе данных
 
Ни одного трека нет в базе AccurateRip

Конец отчёта

Страница 1 из 1

new_topic  reply_topic

Текущее время: 23-Янв 17:12
Часовой пояс: GMT + 4

m Сделано с любовью PR-CY.ru Каталог webplus.info