Вход на сайт

Имя:
Пароль:

· Забыли пароль?
logo
Портал Форум
Регистрация Вход


new_topic  reply_topic

  (Pop) DJ Шантырь - Зажигай, Наташа 2013, WAV (tracks + .cue), lossless

pic
Год выпуска: 2013
Страна: Россия
Жанр: Pop
Номер #: PM 04-11602
Тип издания: альбом
Аудио кодек: WAV
Тип рипа: (tracks + .cue)
Битрейт аудио: lossless

Треклист:

01. Отрывок из радиопередачи ВГТРК-Смоленск «Зажигай Наташа»
02. Реприза «Письма на сайт одноклассники» - «Пароли» (пародия)
03. Аудио тост «У него все горит в руках», «Тамада»
04. Отрывок из выступления ген. Секретаря ЦК КПСС Л.И. Брежнева «Привет Крымскому татарину»
05. Отрывок из передачи ВГТРК–Смоленск «Лена»
06. Отрывок из передачи ВГТРК–Смоленск «Смоляночка»
07. Вокальная заставка от шоу-группы «Чаровницы» «Ирочки»
08. Вступление в стихах «Дембельская-весенняя»
09. Реприза из альбома «Веселый автобус» «Какая у кого» (пародия)
10. «Машенька»
11. Реприза из аудио альбома «Веселый автобус» «Потая-Таиланд»
12. Пафосное представление автора «Италия»
13. Окончание из радиопередачи ВГТРК – Смоленск

Код:

Exact Audio Copy V1.0 beta 3 from 29. August 2011

Отчёт EAC об извлечении, выполненном 4. июля 2014, 22:10

DJ Шантырь / Зажигай Наташа

Дисковод: TSSTcorpBDDVDW SE-506AB   Adapter: 2  ID: 0

Режим чтения                 : Достоверность
Использование точного потока : Да
Отключение кэша аудио        : Да
Использование указателей C2  : Нет

Коррекция смещения при чтении                     : 6
Способность читать области Lead-in и Lead-out     : Нет
Заполнение пропущенных сэмплов тишиной            : Да
Удаление блоков с тишиной в начале и конце        : Нет
При вычислениях CRC использовались нулевые сэмплы : Да
Интерфейс                                         : Встроенный Win32-интерфейс для Win NT/2000
Обработка зазоров                                 : Добавлено к предыдущему треку

Выходной формат : Внутренние WAV-операции
Формат сэмплов  : 44.100 Гц; 16 бит; стерео

TOC извлечённого CD

     Трек |   Старт  | Длительность | Начальный сектор | Конечный сектор
    ---------------------------------------------------------------------
       1  |  0:00.00 |    5:13.18   |           0      |      23492     
       2  |  5:13.18 |    4:51.70   |       23493      |      45387     
       3  | 10:05.13 |    2:59.10   |       45388      |      58822     
       4  | 13:04.23 |    3:33.19   |       58823      |      74816     
       5  | 16:37.42 |    4:19.42   |       74817      |      94283     
       6  | 20:57.09 |    3:19.14   |       94284      |     109222     
       7  | 24:16.23 |    3:43.30   |      109223      |     125977     
       8  | 27:59.53 |    4:00.43   |      125978      |     144020     
       9  | 32:00.21 |    4:09.00   |      144021      |     162695     
      10  | 36:09.21 |    4:38.45   |      162696      |     183590     
      11  | 40:47.66 |    4:16.26   |      183591      |     202816     
      12  | 45:04.17 |    3:44.43   |      202817      |     219659     
      13  | 48:48.60 |    0:19.24   |      219660      |     221108     

Трек  1

     Имя файла C:\New\Новая папка\01 Зажигай наташа.wav

     Длина предзазора  0:00:02.00

     Пиковый уровень 100.0 %
     Скорость извлечения 2.1 X
     Качество трека 100.0 %
     CRC теста BA6E31A2
     CRC копии BA6E31A2
     Трек не обнаружен в базе AccurateRip
     Копирование... OK

Трек  2

     Имя файла C:\New\Новая папка\02 Пороли, пороли (пародия).wav

     Пиковый уровень 100.0 %
     Скорость извлечения 1.5 X
     Качество трека 100.0 %
     CRC теста 7151CF0C
     CRC копии 7151CF0C
     Трек не обнаружен в базе AccurateRip
     Копирование... OK

Трек  3

     Имя файла C:\New\Новая папка\03 Тамада.wav

     Пиковый уровень 100.0 %
     Скорость извлечения 3.0 X
     Качество трека 100.0 %
     CRC теста FAAD9A0D
     CRC копии FAAD9A0D
     Трек не обнаружен в базе AccurateRip
     Копирование... OK

Трек  4

     Имя файла C:\New\Новая папка\04 Привет крымскому татарину.wav

     Пиковый уровень 100.0 %
     Скорость извлечения 3.2 X
     Качество трека 100.0 %
     CRC теста 70AE8F31
     CRC копии 70AE8F31
     Трек не обнаружен в базе AccurateRip
     Копирование... OK

Трек  5

     Имя файла C:\New\Новая папка\05 Лена.wav

     Пиковый уровень 99.7 %
     Скорость извлечения 3.3 X
     Качество трека 100.0 %
     CRC теста 70786427
     CRC копии 70786427
     Трек не обнаружен в базе AccurateRip
     Копирование... OK

Трек  6

     Имя файла C:\New\Новая папка\06 Смоляночка.wav

     Пиковый уровень 99.7 %
     Скорость извлечения 2.2 X
     Качество трека 99.9 %
     CRC теста DAB51838
     CRC копии DAB51838
     Трек не обнаружен в базе AccurateRip
     Копирование... OK

Трек  7

     Имя файла C:\New\Новая папка\07 Ирочки.wav

     Пиковый уровень 100.0 %
     Скорость извлечения 1.7 X
     Качество трека 99.9 %
     CRC теста 9EBBA3CB
     CRC копии 9EBBA3CB
     Трек не обнаружен в базе AccurateRip
     Копирование... OK

Трек  8

     Имя файла C:\New\Новая папка\08 Дембельская - весенняя.wav

     Пиковый уровень 100.0 %
     Скорость извлечения 3.9 X
     Качество трека 100.0 %
     CRC теста 9BEC82BF
     CRC копии 9BEC82BF
     Трек не обнаружен в базе AccurateRip
     Копирование... OK

Трек  9

     Имя файла C:\New\Новая папка\09 Какая у кого (пародия).wav

     Пиковый уровень 100.0 %
     Скорость извлечения 2.1 X
     Качество трека 99.9 %
     CRC теста DA85EA55
     CRC копии DA85EA55
     Трек не обнаружен в базе AccurateRip
     Копирование... OK

Трек 10

     Имя файла C:\New\Новая папка\10 Машенька.wav

     Пиковый уровень 100.0 %
     Скорость извлечения 2.2 X
     Качество трека 100.0 %
     CRC теста EB20D4FF
     CRC копии EB20D4FF
     Трек не обнаружен в базе AccurateRip
     Копирование... OK

Трек 11

     Имя файла C:\New\Новая папка\11 Поттайя - Тайланд.wav

     Пиковый уровень 100.0 %
     Скорость извлечения 4.5 X
     Качество трека 100.0 %
     CRC теста 5199C3B2
     CRC копии 5199C3B2
     Трек не обнаружен в базе AccurateRip
     Копирование... OK

Трек 12

     Имя файла C:\New\Новая папка\12 Италия.wav

     Пиковый уровень 100.0 %
     Скорость извлечения 4.6 X
     Качество трека 100.0 %
     CRC теста 425E2766
     CRC копии 425E2766
     Трек не обнаружен в базе AccurateRip
     Копирование... OK

Трек 13

     Имя файла C:\New\Новая папка\13 Окончание из радиопередачи ВГТРК - Смоленск.wav

     Пиковый уровень 99.7 %
     Скорость извлечения 1.9 X
     Качество трека 100.0 %
     CRC теста 526FDA62
     CRC копии 526FDA62
     Трек не обнаружен в базе AccurateRip
     Копирование... OK

Ни одного трека нет в базе AccurateRip

Ошибок не произошло

Конец отчёта

==== Контрольная сумма отчёта E95B009AA6BC8B634168795F3687416995C419A2744F74CB95C310AD0A7C3CAC ====
Блин, что-то прикольное наверное, хочу качен нашатырь ))

dimassamid писал(а):

Блин, что-то прикольное наверное, хочу качен нашатырь ))
- Да 1 трек давно искал...
Обмен будет?

Страница 1 из 1

new_topic  reply_topic

Текущее время: 20-Сен 03:26
Часовой пояс: GMT + 4

m Сделано с любовью PR-CY.ru Каталог webplus.info