Вход на сайт

Имя:
Пароль:

· Забыли пароль?
logo
Портал Форум
Регистрация Вход


new_topic  reply_topic

  (Pop) Various Artists - MTV Бодрое Утро 2002, APE (image + .cue), lossless

pic
Год выпуска: 2002
Производитель: Россия
Жанр: Pop
Номер #: - ( DreamSound )
Продолжительность: 01:17:19

Тип издания: сборник
Аудио кодек: APE
Тип рипа: (image + .cue)
Битрейт аудио: lossless

Треклист:

01. In-Grid - Tu Es Foutu
02. Killerloop - Chi-Mai' 2002
03. Kate Ryan - Disenchanted
04. Right Said Fred - Stand Up ( For The Champ )
05. Elvis & JXL - A Little Less Conversation
06. Mendez - No Criminal
07. Rob Dougan - Clubbed To Death
08. Mesh - Leave You Nothing ( Remix )
09. Sinead O' Connor - Troy
10. ATB - I Wanna Cry
11. Alex Bucher - Sweet Dream' s
12. Dario G - Heaven Is Closer
13. Stakka Bo - Killer
14. David Charvet - Leap Of Faith
15. ABS - What You Got
16. Patricia Manterola - The Rhythm
17. Marta - Yeah, Yeah, Yeah
18. Mad'House - Holiday
19. Manfred Mann & Funkstar - Blinded By Light
20. Pizza Express - Amada Mia, Amore Mio

Доп. информация: Поставьте приват пожалуйста.

Код:

Exact Audio Copy V0.99 prebeta 5 from 4. May 2009

Отчёт EAC об извлечении, выполненном 26. ноября 2014, 13:14

Сборник MTV / MTV Бодрое Утро

Дисковод: ASUS    DRW-2014L1T   Adapter: 5  ID: 0

Режим чтения                 : Достоверность
Использование точного потока : Да
Отключение кэша аудио        : Да
Использование указателей C2  : Нет

Коррекция смещения при чтении                     : 6
Способность читать области Lead-in и Lead-out     : Нет
Заполнение пропущенных сэмплов тишиной            : Да
Удаление блоков с тишиной в начале и конце        : Нет
При вычислениях CRC использовались нулевые сэмплы : Да
Интерфейс                                         : Встроенный Win32-интерфейс для Win NT/2000

Выходной формат          : Monkey's Audio (без потерь)
Выбранный битрейт        : Normal Lossless Compression
Качество                 : Высокий
Добавление ID3-тэга      : Нет
Утилита сжатия           : C:\Program Files (x86)\Monkey's Audio\MAC.exe
Дополнительные параметры : -w "Artist=%a" -w "Title=%t" -w "Album=%g" -w "Year=%y" -w "Track=%n" -w "Genre=%m" -h %s %d

TOC извлечённого CD

     Трек |   Старт  | Длительность | Начальный сектор | Конечный сектор
    ---------------------------------------------------------------------
       1  |  0:00.00 |    3:38.23   |           0      |      16372     
       2  |  3:38.23 |    3:27.53   |       16373      |      31950     
       3  |  7:06.01 |    3:40.43   |       31951      |      48493     
       4  | 10:46.44 |    3:22.61   |       48494      |      63704     
       5  | 14:09.30 |    3:35.30   |       63705      |      79859     
       6  | 17:44.60 |    3:30.60   |       79860      |      95669     
       7  | 21:15.45 |    3:19.08   |       95670      |     110602     
       8  | 24:34.53 |    3:54.24   |      110603      |     128176     
       9  | 28:29.02 |    4:36.74   |      128177      |     148950     
      10  | 33:06.01 |    4:25.41   |      148951      |     168866     
      11  | 37:31.42 |    3:06.51   |      168867      |     182867     
      12  | 40:38.18 |    3:05.02   |      182868      |     196744     
      13  | 43:43.20 |    4:04.01   |      196745      |     215045     
      14  | 47:47.21 |    4:42.62   |      215046      |     236257     
      15  | 52:30.08 |    3:57.25   |      236258      |     254057     
      16  | 56:27.33 |    3:24.55   |      254058      |     269412     
      17  | 59:52.13 |    3:25.21   |      269413      |     284808     
      18  | 63:17.34 |    3:38.43   |      284809      |     301201     
      19  | 66:56.02 |    4:04.33   |      301202      |     319534     
      20  | 71:00.35 |    6:19.40   |      319535      |     347999     

Характеристики диапазона извлечения и сообщения об ошибках

Выбранный диапазон

     Имя файла D:\Bit Torrent\Various  Artists - MTV  Бодрое  Утро\Tau  Analyzer\Сборник MTV - MTV Бодрое Утро.wav

     Пиковый уровень 100.0 %
     Качество диапазона 100.0 %
     CRC теста 9167BF9D
     CRC копии 9167BF9D
     Копирование... OK

Ошибок не произошло

 
AccurateRip: сводка
 
Трек  1  точное извлечение (доверие 1)  [D703E0D8]
Трек  2  точное извлечение (доверие 1)  [3F7F5F59]
Трек  3  точное извлечение (доверие 1)  [7177ABF7]
Трек  4  точное извлечение (доверие 1)  [A82A6D7F]
Трек  5  точное извлечение (доверие 1)  [B7FB3089]
Трек  6  точное извлечение (доверие 1)  [8DE67148]
Трек  7  точное извлечение (доверие 1)  [C5730F37]
Трек  8  точное извлечение (доверие 1)  [0024E135]
Трек  9  точное извлечение (доверие 1)  [B0F04345]
Трек 10  точное извлечение (доверие 1)  [6E745999]
Трек 11  точное извлечение (доверие 1)  [0D39C0B1]
Трек 12  точное извлечение (доверие 1)  [979F8249]
Трек 13  точное извлечение (доверие 1)  [2234FA14]
Трек 14  точное извлечение (доверие 1)  [3B39E61B]
Трек 15  точное извлечение (доверие 1)  [A1BB6E6E]
Трек 16  точное извлечение (доверие 1)  [19759070]
Трек 17  точное извлечение (доверие 1)  [D6BB4108]
Трек 18  точное извлечение (доверие 1)  [F2B000A0]
Трек 19  точное извлечение (доверие 1)  [283C0CEC]
Трек 20  точное извлечение (доверие 1)  [E57C401A]
 
Все треки извлечены точно

Конец отчёта
good work

Страница 1 из 1

new_topic  reply_topic

Текущее время: 25-Янв 10:47
Часовой пояс: GMT + 4

m Сделано с любовью PR-CY.ru Каталог webplus.info