Вход на сайт

Имя:
Пароль:

· Забыли пароль?
logo
Портал Форум
Регистрация Вход


new_topic  reply_topic

  (Italo-Disco, New Wave) Tobias Bernstrup - Sing My Body Electric 2012, WAV (image + .cue), lossless

pic
Год выпуска: 2012
Страна: Швеция
Производитель: Россия
Жанр: Italo-Disco, New Wave
Номер #: VOX 11 CD (Other Voices Records)
Продолжительность: 58.09

Тип издания: альбом
Аудио кодек: WAV
Тип рипа: (image + .cue)
Битрейт аудио: lossless

Треклист:

01. Departure
02. Dancing in the Shuttle
03. 2 Can Play
04. Body Electric
05. Videodrome
06. 1984
07. Ugly Alone
08. Roll the Camera
09. Data Love
10. Enemies of the Earth
11. No Time to Die
12. Veintisiete

Код:

Exact Audio Copy V1.0 beta 3 from 29. August 2011

Отчёт EAC об извлечении, выполненном 14. ноября 2014, 22:15

TOBIAS BERNSTRUP / Sing My Body Electric

Дисковод: TEAC    CD-W58E   Adapter: 0  ID: 1

Режим чтения                 : Достоверность
Использование точного потока : Да
Отключение кэша аудио        : Да
Использование указателей C2  : Нет

Коррекция смещения при чтении                     : 685
Способность читать области Lead-in и Lead-out     : Нет
Заполнение пропущенных сэмплов тишиной            : Да
Удаление блоков с тишиной в начале и конце        : Нет
При вычислениях CRC использовались нулевые сэмплы : Да
Интерфейс                                         : Встроенный Win32-интерфейс для Win NT/2000

Выходной формат : Внутренние WAV-операции
Формат сэмплов  : 44.100 Гц; 16 бит; стерео

TOC извлечённого CD

     Трек |   Старт  | Длительность | Начальный сектор | Конечный сектор
    ---------------------------------------------------------------------
       1  |  0:00.00 |    1:54.26   |           0      |       8575     
       2  |  1:54.26 |    4:48.12   |        8576      |      30187     
       3  |  6:42.38 |    4:13.31   |       30188      |      49193     
       4  | 10:55.69 |    3:40.74   |       49194      |      65767     
       5  | 14:36.68 |    3:39.69   |       65768      |      82261     
       6  | 18:16.62 |    3:50.48   |       82262      |      99559     
       7  | 22:07.35 |    4:12.67   |       99560      |     118526     
       8  | 26:20.27 |    4:50.19   |      118527      |     140295     
       9  | 31:10.46 |    3:41.51   |      140296      |     156921     
      10  | 34:52.22 |    3:57.71   |      156922      |     174767     
      11  | 38:50.18 |   19:18.73   |      174768      |     261690     

Характеристики диапазона извлечения и сообщения об ошибках

Выбранный диапазон

     Имя файла D:\disk D\Music\CD Recordings (Wav format)\Exact Audio Copy\TOBIAS BERNSTRUP (2012) - Sing My Body Electric\TOBIAS BERNSTRUP - Sing My Body Electric.wav

     Пиковый уровень 99.2 %
     Скорость извлечения 4.0 X
     Качество диапазона 100.0 %
     CRC теста 4DBCF706
     CRC копии 4DBCF706
     Копирование... OK

Ошибок не произошло

Конец отчёта

==== Контрольная сумма отчёта 834BA818D198D3929CF92B4FF97F1EBBFE858D9624E317A7D24DAAA6905D073A ====

Страница 1 из 1

new_topic  reply_topic

Текущее время: 23-Янв 16:11
Часовой пояс: GMT + 4

m Сделано с любовью PR-CY.ru Каталог webplus.info