Вход на сайт

Имя:
Пароль:

· Забыли пароль?
logo
Портал Форум
Регистрация Вход


new_topic  reply_topic

  (House,Techno) N.U.K.E. feat.Marilyn Mariani - Nana 1992, WAV (image + .cue), lossless

pic
Год выпуска: 1992
Страна: Германия
Производитель: Германия
Жанр: House,Techno
Номер #: ZYX 6828-8 (ZYX Music)
Продолжительность: 16:17

Тип издания: макси-сингл
Аудио кодек: WAV
Тип рипа: (image + .cue)
Битрейт аудио: lossless

Треклист:

01. Nana (Digital Boy Remix) (Futuristik Remix)
02. Nana (The Real Dance Version) (Radio Cut)
03. Nana (The Real Dance Version) (Club Cut)
04. Nana (Digital Boy Remix) (Suicide Remix)

Код:

Exact Audio Copy V1.0 beta 3 from 29. August 2011

Отчёт EAC об извлечении, выполненном 7. декабря 2014, 18:07

N.U.K.E. feat.MARILYN MARIANI / Nana

Дисковод: TEAC    CD-W58E   Adapter: 0  ID: 1

Режим чтения                 : Достоверность
Использование точного потока : Да
Отключение кэша аудио        : Да
Использование указателей C2  : Нет

Коррекция смещения при чтении                     : 685
Способность читать области Lead-in и Lead-out     : Нет
Заполнение пропущенных сэмплов тишиной            : Да
Удаление блоков с тишиной в начале и конце        : Нет
При вычислениях CRC использовались нулевые сэмплы : Да
Интерфейс                                         : Встроенный Win32-интерфейс для Win NT/2000

Выходной формат : Внутренние WAV-операции
Формат сэмплов  : 44.100 Гц; 16 бит; стерео

TOC извлечённого CD

     Трек |   Старт  | Длительность | Начальный сектор | Конечный сектор
    ---------------------------------------------------------------------
       1  |  0:00.00 |    4:23.15   |           0      |      19739     
       2  |  4:23.15 |    2:43.08   |       19740      |      31972     
       3  |  7:06.23 |    5:04.22   |       31973      |      54794     
       4  | 12:10.45 |    4:07.13   |       54795      |      73332     

Характеристики диапазона извлечения и сообщения об ошибках

Выбранный диапазон

     Имя файла D:\disk D\Music\CD Recordings (Wav format)\Exact Audio Copy\N.U.K.E. feat.MARILYN MARIANI (1992) - Nana\N.U.K.E. feat.MARILYN MARIANI - Nana.wav

     Пиковый уровень 94.5 %
     Скорость извлечения 3.0 X
     Качество диапазона 99.9 %
     CRC теста 0DF2CE3E
     CRC копии 0DF2CE3E
     Копирование... OK

Ошибок не произошло

Конец отчёта

==== Контрольная сумма отчёта DE9A272354044E5452377E31630C5124DF77EC0526CEA5A3A79B00D85965957B ====

Страница 1 из 1

new_topic  reply_topic

Текущее время: 21-Июл 04:24
Часовой пояс: GMT + 4

m Сделано с любовью PR-CY.ru Каталог webplus.info