Вход на сайт

Имя:
Пароль:

· Забыли пароль?
logo
Портал Форум
Регистрация Вход


new_topic  reply_topic

  (House, Techno) Das Condom feat.Axel F. - Pump It Up! 1992, WAV (image + .cue), lossless

pic
Год выпуска: 1992
Страна: Германия
Производитель: Германия
Жанр: House, Techno
Номер #: 863 445-2 (Polydor)
Продолжительность: 19:20

Тип издания: сингл
Аудио кодек: WAV
Тип рипа: (image + .cue)
Битрейт аудио: lossless

Треклист:

01. Pump It Up! (Maxi-Erection)
02. Pump It Up! (Quicky)
03. Pump It Up! (Dominamix)
04. Pump It Up! (Italo Macho)

Код:

Exact Audio Copy V1.0 beta 3 from 29. August 2011

Отчёт EAC об извлечении, выполненном 7. декабря 2014, 20:36

DAS CONDOM feat.AXEL F. / Pump It Up!

Дисковод: TEAC    CD-W58E   Adapter: 0  ID: 1

Режим чтения                 : Достоверность
Использование точного потока : Да
Отключение кэша аудио        : Да
Использование указателей C2  : Нет

Коррекция смещения при чтении                     : 685
Способность читать области Lead-in и Lead-out     : Нет
Заполнение пропущенных сэмплов тишиной            : Да
Удаление блоков с тишиной в начале и конце        : Нет
При вычислениях CRC использовались нулевые сэмплы : Да
Интерфейс                                         : Встроенный Win32-интерфейс для Win NT/2000

Выходной формат : Внутренние WAV-операции
Формат сэмплов  : 44.100 Гц; 16 бит; стерео

TOC извлечённого CD

     Трек |   Старт  | Длительность | Начальный сектор | Конечный сектор
    ---------------------------------------------------------------------
       1  |  0:00.33 |    5:53.10   |          33      |      26517     
       2  |  5:53.43 |    4:02.10   |       26518      |      44677     
       3  |  9:55.53 |    4:34.30   |       44678      |      65257     
       4  | 14:30.08 |    4:51.12   |       65258      |      87094     

Характеристики диапазона извлечения и сообщения об ошибках

Выбранный диапазон

     Имя файла D:\disk D\Music\CD Recordings (Wav format)\Exact Audio Copy\DAS CONDOM (1992) - Pump It Up!\DAS CONDOM feat.AXEL F. - Pump It Up!.wav

     Пиковый уровень 91.2 %
     Скорость извлечения 3.3 X
     Качество диапазона 100.0 %
     CRC теста 9FAC7099
     CRC копии 9FAC7099
     Копирование... OK

Ошибок не произошло

Конец отчёта

==== Контрольная сумма отчёта 1B64B29C9E7B8AE550CA99F6B2B40D512AC01919AB562C682A88AEE263F2D941 ====

Страница 1 из 1

new_topic  reply_topic

Текущее время: 21-Ноя 06:29
Часовой пояс: GMT + 4

m Сделано с любовью PR-CY.ru Каталог webplus.info