Вход на сайт

Имя:
Пароль:

· Забыли пароль?
logo
Портал Форум
Регистрация Вход


new_topic  reply_topic

  (Goa Trance) Asia 2001 - Live 1996, WAV (image + .cue), lossless

pic
Год выпуска: 1996
Страна: France
Производитель: France
Жанр: Goa Trance
Номер #: 096-006 (Trans'Pact Productions)
Продолжительность: 1:10:16

Тип издания: partially mixed
Аудио кодек: WAV
Тип рипа: (image + .cue)
Битрейт аудио: lossless

Треклист:

01. Strange World
02. Kalimba
03. Super Skunk
04. Rakshas
05. Bengali
06. Kalimba (Remix)
07. MFG - Magnetic Activity (Asia 2001 Remix)
08. MFG - Overload (Asia 2001 Remix)

Код:

Exact Audio Copy V1.0 beta 3 from 29. August 2011

Отчёт EAC об извлечении, выполненном 7. декабря 2014, 18:49

ASIA 2001 / Live

Дисковод: TEAC    CD-W58E   Adapter: 0  ID: 1

Режим чтения                 : Достоверность
Использование точного потока : Да
Отключение кэша аудио        : Да
Использование указателей C2  : Нет

Коррекция смещения при чтении                     : 685
Способность читать области Lead-in и Lead-out     : Нет
Заполнение пропущенных сэмплов тишиной            : Да
Удаление блоков с тишиной в начале и конце        : Нет
При вычислениях CRC использовались нулевые сэмплы : Да
Интерфейс                                         : Встроенный Win32-интерфейс для Win NT/2000

Выходной формат : Внутренние WAV-операции
Формат сэмплов  : 44.100 Гц; 16 бит; стерео

TOC извлечённого CD

     Трек |   Старт  | Длительность | Начальный сектор | Конечный сектор
    ---------------------------------------------------------------------
       1  |  0:00.00 |    7:39.59   |           0      |      34483     
       2  |  7:39.59 |    8:20.04   |       34484      |      71987     
       3  | 15:59.63 |   10:18.32   |       71988      |     118369     
       4  | 26:18.20 |    8:29.36   |      118370      |     156580     
       5  | 34:47.56 |    8:12.67   |      156581      |     193547     
       6  | 43:00.48 |    7:36.39   |      193548      |     227786     
       7  | 50:37.12 |    8:48.36   |      227787      |     267422     
       8  | 59:25.48 |   10:51.03   |      267423      |     316250     

Характеристики диапазона извлечения и сообщения об ошибках

Выбранный диапазон

     Имя файла D:\disk D\Music\CD Recordings (Wav format)\Exact Audio Copy\ASIA 2001 (1996) - Live\ASIA 2001 - Live.wav

     Пиковый уровень 100.0 %
     Скорость извлечения 3.9 X
     Качество диапазона 100.0 %
     CRC теста A13E80FB
     CRC копии A13E80FB
     Копирование... OK

Ошибок не произошло

Конец отчёта

==== Контрольная сумма отчёта 152B8B8C849C7CAB32B8C340C90B16F68AD3EF8A264C0C1E1DB9BBB7545E49ED ====
Какой замечательный сборник. Прямо из прошлого! Спасибо за Ваш труд и время!

Страница 1 из 1

new_topic  reply_topic

Текущее время: 23-Сен 16:38
Часовой пояс: GMT + 4

m Сделано с любовью PR-CY.ru Каталог webplus.info