Вход на сайт

Имя:
Пароль:

· Забыли пароль?
logo
Портал Форум
Регистрация Вход


new_topic  reply_topic

  (Synth-pop,Future Jazz) Dieter Meier - Out of Chaos 2014, WAV (image + .cue), lossless

pic
Год выпуска: 2014
Страна: Швейцария
Производитель: Германия
Жанр: Synth-pop,Future Jazz
Номер #: AKT749CD (Staatsakt)
Продолжительность: 42:09

Тип издания: альбом
Аудио кодек: WAV
Тип рипа: (image + .cue)
Битрейт аудио: lossless

Треклист:

01. Lazy Night
02. Paradise Game
03. Busy Going Nowhere
04. Night Porter
05. Loveblind
06. The Ritual
07. Another Day
08. Jimmy
09. Buffoon
10. Fat Fly
11. Annabelle
12. Schüüfele

Код:

Exact Audio Copy V1.0 beta 3 from 29. August 2011

Отчёт EAC об извлечении, выполненном 11. декабря 2014, 20:15

DIETER MEIER / Out of Chaos

Дисковод: TEAC    CD-W58E   Adapter: 0  ID: 1

Режим чтения                 : Достоверность
Использование точного потока : Да
Отключение кэша аудио        : Да
Использование указателей C2  : Нет

Коррекция смещения при чтении                     : 685
Способность читать области Lead-in и Lead-out     : Нет
Заполнение пропущенных сэмплов тишиной            : Да
Удаление блоков с тишиной в начале и конце        : Нет
При вычислениях CRC использовались нулевые сэмплы : Да
Интерфейс                                         : Встроенный Win32-интерфейс для Win NT/2000

Выходной формат : Внутренние WAV-операции
Формат сэмплов  : 44.100 Гц; 16 бит; стерео

TOC извлечённого CD

     Трек |   Старт  | Длительность | Начальный сектор | Конечный сектор
    ---------------------------------------------------------------------
       1  |  0:00.00 |    3:24.68   |           0      |      15367     
       2  |  3:24.68 |    3:01.02   |       15368      |      28944     
       3  |  6:25.70 |    4:03.26   |       28945      |      47195     
       4  | 10:29.21 |    3:23.35   |       47196      |      62455     
       5  | 13:52.56 |    4:04.74   |       62456      |      80829     
       6  | 17:57.55 |    3:40.03   |       80830      |      97332     
       7  | 21:37.58 |    3:17.03   |       97333      |     112110     
       8  | 24:54.61 |    3:10.59   |      112111      |     126419     
       9  | 28:05.45 |    3:12.32   |      126420      |     140851     
      10  | 31:18.02 |    2:41.00   |      140852      |     152926     
      11  | 33:59.02 |    3:54.37   |      152927      |     170513     
      12  | 37:53.39 |    4:15.68   |      170514      |     189706     

Характеристики диапазона извлечения и сообщения об ошибках

Выбранный диапазон

     Имя файла D:\disk D\Music\CD Recordings (Wav format)\Exact Audio Copy\DIETER MEIER (2014) - Out of Chaos\DIETER MEIER - Out of Chaos.wav

     Пиковый уровень 99.8 %
     Скорость извлечения 3.8 X
     Качество диапазона 100.0 %
     CRC теста 2FEA4481
     CRC копии 2FEA4481
     Копирование... OK

Ошибок не произошло

Конец отчёта

==== Контрольная сумма отчёта 5FED082089C373CB92C34969351676E83AD95293BB0CADB2812670877825D3D4 ====

Страница 1 из 1

new_topic  reply_topic

Текущее время: 21-Июл 04:27
Часовой пояс: GMT + 4

m Сделано с любовью PR-CY.ru Каталог webplus.info