Вход на сайт

Имя:
Пароль:

· Забыли пароль?
logo
Портал Форум
Регистрация Вход


new_topic  reply_topic

  (Synth-pop) Био - Техноромантики : Музыка Стойких Оптимистов 2005, WAV (image + .cue), lossless

pic
Год выпуска: 2005
Страна: Россия
Производитель: Россия
Жанр: Synth-pop
Номер #: SZCD 3531-05 (СОЮЗ)
Продолжительность: 1:07:09

Тип издания: альбом
Аудио кодек: WAV
Тип рипа: (image + .cue)
Битрейт аудио: lossless

Треклист:

01. Ритмы жизненных сред
02. Техноромантики
03. Телефонная любовь
04. Странное видео
05. Остров цветных снов
06. Ты помнишь
07. Эстет
08. Тринадцать
09. Ночь на рассвете
10. Новая сила

Bonus

11. Ритмы жизненных сред (Live)
12. Техноромантики (Live)
13. Танцы по видео (Live)
14. Телефонная любовь (Live)
15. Остров цветных снов (Live)
16. Ты помнишь (Live)
17. Новая сила (Live)

Код:

Exact Audio Copy V1.0 beta 3 from 29. August 2011

Отчёт EAC об извлечении, выполненном 14. декабря 2014, 20:39

БИО / Музыка Стойких Оптимистов

Дисковод: TEAC    CD-W58E   Adapter: 0  ID: 1

Режим чтения                 : Достоверность
Использование точного потока : Да
Отключение кэша аудио        : Да
Использование указателей C2  : Нет

Коррекция смещения при чтении                     : 685
Способность читать области Lead-in и Lead-out     : Нет
Заполнение пропущенных сэмплов тишиной            : Да
Удаление блоков с тишиной в начале и конце        : Нет
При вычислениях CRC использовались нулевые сэмплы : Да
Интерфейс                                         : Встроенный Win32-интерфейс для Win NT/2000

Выходной формат : Внутренние WAV-операции
Формат сэмплов  : 44.100 Гц; 16 бит; стерео

TOC извлечённого CD

     Трек |   Старт  | Длительность | Начальный сектор | Конечный сектор
    ---------------------------------------------------------------------
       1  |  0:00.00 |    2:52.25   |           0      |      12924     
       2  |  2:52.25 |    3:29.25   |       12925      |      28624     
       3  |  6:21.50 |    3:59.62   |       28625      |      46611     
       4  | 10:21.37 |    4:49.63   |       46612      |      68349     
       5  | 15:11.25 |    4:53.70   |       68350      |      90394     
       6  | 20:05.20 |    3:34.67   |       90395      |     106511     
       7  | 23:40.12 |    4:25.67   |      106512      |     126453     
       8  | 28:06.04 |    3:24.07   |      126454      |     141760     
       9  | 31:30.11 |    5:29.18   |      141761      |     166453     
      10  | 36:59.29 |    3:28.47   |      166454      |     182100     
      11  | 40:28.01 |    2:52.18   |      182101      |     195018     
      12  | 43:20.19 |    3:33.64   |      195019      |     211057     
      13  | 46:54.08 |    4:48.60   |      211058      |     232717     
      14  | 51:42.68 |    3:46.36   |      232718      |     249703     
      15  | 55:29.29 |    5:02.19   |      249704      |     272372     
      16  | 60:31.48 |    3:35.15   |      272373      |     288512     
      17  | 64:06.63 |    3:02.22   |      288513      |     302184     
      18  | 69:41.10 |    6:11.64   |      313585      |     341473     

Характеристики диапазона извлечения и сообщения об ошибках

Выбранный диапазон

     Имя файла D:\disk D\Music\CD Recordings (Wav format)\Exact Audio Copy\БИО (2005) - Музыка Стойких Оптимистов\БИО - Музыка Стойких Оптимистов.wav

     Пиковый уровень 96.6 %
     Скорость извлечения 3.9 X
     Качество диапазона 100.0 %
     CRC теста D69F3CF5
     CRC копии D69F3CF5
     Копирование... OK

Ошибок не произошло

Конец отчёта

==== Контрольная сумма отчёта BC9CDD48CF8ADAEB0F6740657C53FCB3996F95539FBAFFD708856658F4EED2CF ====

Страница 1 из 1

new_topic  reply_topic

Текущее время: 23-Сен 16:39
Часовой пояс: GMT + 4

m Сделано с любовью PR-CY.ru Каталог webplus.info