Вход на сайт

Имя:
Пароль:

· Забыли пароль?
logo
Портал Форум
Регистрация Вход


new_topic  reply_topic

  (Eurodance) MASTERBOY - Generation Of Love - The Album 1995, FLAC tracks, lossless

pic
Год выпуска: 1995
Производитель: Germany
Жанр: Eurodance
Лэйбл - Номер по каталогу: Club Zone – 35 856 4
Продолжительность: 00:54:14

Тип издания: альбом
Аудио кодек: FLAC
Тип рипа: tracks
Битрейт аудио: lossless

Barcode: 35856 4
Label Code: LC 3579
Distribution Code: PY 833
Mastering SID Code: IFPI L002
Rights Society: B.I.E.M./STEMRA
Matrix Code: 527 998-2 01 > MADE IN GERMANY BY PMDC

Треклист:

1. Intro (2:50)
2. Give Me Your Love (4:12)
3. Anybody (Movin' On) (3:53)
4. Baby Let It Be (4:05)
5. Land Of Dreaming (4:03)
6. Masterboy Theme (The Third) (6:06)
7. Generation Of Love (3:40)
8. Feel The Fire (4:25)
9. Get It On (3:38)
10. Feel The Force (House Version) (5:21)

Bonus Tracks:

11. Generation Of Love (Fly Away Remix) (6:03)
12. Anyobody (Movin' On) (F. J. Gauder Remix) (5:55)

Доп. информация: Track 9 название "Get In On", на cd - (0358 564).

Код:

Exact Audio Copy V1.0 beta 3 from 29. August 2011

Отчёт EAC об извлечении, выполненном 29. мая 2015, 1:30

MASTERBOY / Generation Of Love - The Album

Дисковод: ASUS    DRW-2014L1T   Adapter: 2  ID: 0

Режим чтения                 : Достоверность
Использование точного потока : Да
Отключение кэша аудио        : Да
Использование указателей C2  : Нет

Коррекция смещения при чтении                     : 6
Способность читать области Lead-in и Lead-out     : Нет
Заполнение пропущенных сэмплов тишиной            : Да
Удаление блоков с тишиной в начале и конце        : Нет
При вычислениях CRC использовались нулевые сэмплы : Да
Интерфейс                                         : Встроенный Win32-интерфейс для Win NT/2000
Обработка зазоров                                 : Добавлено к предыдущему треку

Выходной формат          : Пользовательский кодировщик
Выбранный битрейт        : 1024 kBit/s
Качество                 : Высокий
Добавление ID3-тега      : Нет
Утилита сжатия           : C:\Program Files\Exact Audio Copy\FLAC\FLAC.EXE
Дополнительные параметры : -6 -V -T "ARTIST=%artist%" -T "TITLE=%title%" -T "ALBUM=%albumtitle%" -T "DATE=%year%" -T "TRACKNUMBER=%tracknr%" -T "GENRE=%genre%" -T "COMMENT=%comment%" -T "BAND=%albuminterpret%" -T "ALBUMARTIST=%albuminterpret%" -T "COMPOSER=%composer%" %haslyrics%--tag-from-file=LYRICS="%lyricsfile%"%haslyrics% -T "DISCNUMBER=%cdnumber%" -T "TOTALDISCS=%totalcds%" -T "TOTALTRACKS=%numtracks%" %hascover%--picture="%coverfile%"%hascover% %source% -o %dest%

TOC извлечённого CD

     Трек |   Старт  | Длительность | Начальный сектор | Конечный сектор
    ---------------------------------------------------------------------
       1  |  0:00.32 |    2:50.00   |          32      |      12781     
       2  |  2:50.32 |    4:13.00   |       12782      |      31756     
       3  |  7:03.32 |    3:54.00   |       31757      |      49306     
       4  | 10:57.32 |    4:06.00   |       49307      |      67756     
       5  | 15:03.32 |    4:03.00   |       67757      |      85981     
       6  | 19:06.32 |    6:07.13   |       85982      |     113519     
       7  | 25:13.45 |    3:39.17   |      113520      |     129961     
       8  | 28:52.62 |    4:24.45   |      129962      |     149806     
       9  | 33:17.32 |    3:37.30   |      149807      |     166111     
      10  | 36:54.62 |    5:21.70   |      166112      |     190256     
      11  | 42:16.57 |    6:04.00   |      190257      |     217556     
      12  | 48:20.57 |    5:54.50   |      217557      |     244156     

Трек  1

     Имя файла E:\This EAC has made Federal\MASTERBOY - 1 - Intro.wav

     Длина предзазора  0:00:02.32

     Пиковый уровень 97.7 %
     Скорость извлечения 3.4 X
     Качество трека 99.9 %
     CRC теста 0344DC15
     CRC копии 0344DC15
     Точное извлечение (достоверность 9)  [14E99983]  (AR v2)
     Копирование... OK

Трек  2

     Имя файла E:\This EAC has made Federal\MASTERBOY - 2 - Give Me Your Love.wav

     Пиковый уровень 97.7 %
     Скорость извлечения 5.4 X
     Качество трека 100.0 %
     CRC теста B609C151
     CRC копии B609C151
     Точное извлечение (достоверность 9)  [C5D72F65]  (AR v2)
     Копирование... OK

Трек  3

     Имя файла E:\This EAC has made Federal\MASTERBOY - 3 - Anybody (Movin' On).wav

     Пиковый уровень 97.7 %
     Скорость извлечения 5.9 X
     Качество трека 100.0 %
     CRC теста BA35BCF5
     CRC копии BA35BCF5
     Точное извлечение (достоверность 9)  [A9ACBBF8]  (AR v2)
     Копирование... OK

Трек  4

     Имя файла E:\This EAC has made Federal\MASTERBOY - 4 - Baby Let It Be.wav

     Пиковый уровень 97.7 %
     Скорость извлечения 4.8 X
     Качество трека 99.9 %
     CRC теста B9CB1B38
     CRC копии B9CB1B38
     Точное извлечение (достоверность 9)  [332FFEC7]  (AR v2)
     Копирование... OK

Трек  5

     Имя файла E:\This EAC has made Federal\MASTERBOY - 5 - Land Of Dreaming.wav

     Пиковый уровень 97.7 %
     Скорость извлечения 5.1 X
     Качество трека 99.9 %
     CRC теста 7AE54089
     CRC копии 7AE54089
     Точное извлечение (достоверность 9)  [86D0CB84]  (AR v2)
     Копирование... OK

Трек  6

     Имя файла E:\This EAC has made Federal\MASTERBOY - 6 - Masterboy Theme (The Third).wav

     Пиковый уровень 97.7 %
     Скорость извлечения 5.9 X
     Качество трека 99.9 %
     CRC теста C9B0F65D
     CRC копии C9B0F65D
     Точное извлечение (достоверность 8)  [4CF1F0A0]  (AR v2)
     Копирование... OK

Трек  7

     Имя файла E:\This EAC has made Federal\MASTERBOY - 7 - Generation Of Love.wav

     Длина предзазора  0:00:01.00

     Пиковый уровень 97.7 %
     Скорость извлечения 7.6 X
     Качество трека 100.0 %
     CRC теста 60106EDB
     CRC копии 60106EDB
     Точное извлечение (достоверность 10)  [94460C83]  (AR v2)
     Копирование... OK

Трек  8

     Имя файла E:\This EAC has made Federal\MASTERBOY - 8 - Feel The Fire.wav

     Пиковый уровень 97.7 %
     Скорость извлечения 6.1 X
     Качество трека 99.9 %
     CRC теста 67B59735
     CRC копии 67B59735
     Точное извлечение (достоверность 9)  [30A5E2F8]  (AR v2)
     Копирование... OK

Трек  9

     Имя файла E:\This EAC has made Federal\MASTERBOY - 9 - Get In On.wav

     Пиковый уровень 97.7 %
     Скорость извлечения 8.1 X
     Качество трека 100.0 %
     CRC теста CD800961
     CRC копии CD800961
     Точное извлечение (достоверность 9)  [40A937D4]  (AR v2)
     Копирование... OK

Трек 10

     Имя файла E:\This EAC has made Federal\MASTERBOY - 10 - Feel The Force (House Version).wav

     Пиковый уровень 97.7 %
     Скорость извлечения 8.9 X
     Качество трека 100.0 %
     CRC теста A49F5B45
     CRC копии A49F5B45
     Точное извлечение (достоверность 9)  [7E5C79E7]  (AR v2)
     Копирование... OK

Трек 11

     Имя файла E:\This EAC has made Federal\MASTERBOY - 11 - Generation Of Love (Fly Away Remix).wav

     Пиковый уровень 98.8 %
     Скорость извлечения 9.5 X
     Качество трека 100.0 %
     CRC теста C6FA0793
     CRC копии C6FA0793
     Точное извлечение (достоверность 9)  [25502C8C]  (AR v2)
     Копирование... OK

Трек 12

     Имя файла E:\This EAC has made Federal\MASTERBOY - 12 - Anybody (Movin' On) (F.J. Gauder Remix).wav

     Длина предзазора  0:00:01.35

     Пиковый уровень 97.7 %
     Скорость извлечения 9.9 X
     Качество трека 100.0 %
     CRC теста 751AE0E1
     CRC копии 751AE0E1
     Точное извлечение (достоверность 8)  [65D6466C]  (AR v2)
     Копирование... OK

Все треки извлечены точно

Ошибок не произошло

Конец отчёта

==== Контрольная сумма отчёта C9E4DEA4C5FD979273A40F11E76340842FC5A1AE14393C8A404EDB00C2E4BDA5 ====
MASTERBOY - Dance To The Beat (Single) 1990
MASTERBOY - Dance To The Beat (Remix) 1990
MASTERBOY - Cause We Do It Again (Single) 1991
MASTERBOY Feat. MENDY LEE & M.C. A.T.B. - I Need Your Love (Single) 1991
MASTERBOY Feat. MENDY LEE & M.C. A.T.B. - I Need Your Love (Single) 1991
MASTERBOY - Masterboy Theme (Vinyl, 12'') 1991
MASTERBOY - Shake It Up And Dance (Single) 1991
MASTERBOY - Shake It Up And Dance (Remix) 1991
MASTERBOY - The Masterboy Family 1991
MASTERBOY - Keep On Dancing (Single) 1992
MASTERBOY - Noche Del Amor (Single) 1992
MASTERBOY - Everybody Needs Somebody (Single) 1993
MASTERBOY - Everybody Needs Somebody (Remix) 1993
MASTERBOY - Fall In Trance (Single) 1993
MASTERBOY - Fall In Trance (Remix) 1993
MASTERBOY - Feeling Alright 1993
MASTERBOY - Different Dreams 1994
MASTERBOY - Different Dreams (Album, Promo, Cardboard Sleeve) 1994
MASTERBOY - Feel The Heat Of The Night (Single) 1994
MASTERBOY - Feel The Heat Of The Night (Single, Cardboard Sleeve) 1994
MASTERBOY - Feel The Heat Of The Night (Remixes) 1994
MASTERBOY - Feel The Heat Of The Night (Re-Re-Mix) 1994
MASTERBOY - I Got To Give It Up (Single) 1994
MASTERBOY - I Got To Give It Up (Remixes) 1994
MASTERBOY - Is This The Love (Single) 1994
MASTERBOY - Is This The Love (Single, Cardboard Sleeve) 1994
MASTERBOY - Is This The Love (Remix) 1994
MASTERBOY - Anybody (UK Single) 1995
MASTERBOY - Anybody (Movin' On) (Single) 1995
MASTERBOY - Anybody (Movin' On) (Single, Cardboard Sleeve) 1995
MASTERBOY - Anybody (Movin' On) (The Remixes) 1995
MASTERBOY - Different Dreams 25.08.1995
MASTERBOY - Different Dreams (Single, Cardboard Sleeve) 1995
MASTERBOY - Generation Of Love (Single) 1995
MASTERBOY - Generation Of Love (Single, Limited Edition) 1995
MASTERBOY - Generation Of Love (Remix) 1995
MASTERBOY - Generation Of Love (The Album) 1995
MASTERBOY - Generation Of Love - The Album (Album) 1995
MASTERBOY - Megamix (Single, Cardboard Sleeve) 1995
MASTERBOY - Colours 1996
MASTERBOY - Land Of Dreaming (Single) 1996
MASTERBOY - Land Of Dreaming (Remixes) 1996
MASTERBOY - Land Of Dreaming (Remixes) 1996
MASTERBOY - Land Of Dreaming (Remixes, Cardboard Sleeve) 1996
MASTERBOY - Mister Feeling (Single) 1996
MASTERBOY - Mister Feeling (The Remixes) 1996
MASTERBOY - Show Me Colours (Single) 1996
MASTERBOY - Show Me Colours (The Remixes) 1996
MASTERBOY - Just For You (Single) 1997
MASTERBOY - La Ola (Hand In Hand) (Single) 1997
MASTERBOY - Dancin' Forever (Single) 1998
MASTERBOY - Dancin' Forever (Remixes) (Vinyl, 12'') 1998
MASTERBOY - Porque Te Vas (Single) 1999
MASTERBOY - Best Of 2000
MASTERBOY - Best Of (2 CD Digipack) 2000
MASTERBOY - Feel The Heat 2000 (Single) 2000
MASTERBOY - I Like To Like It (Single) 2000
MASTERBOY - Ride Like The Wind 2001
MASTERBOY - The Heat Of The Night 2001
MASTERBOY - I Need A Lover Tonight (Single) 2002
MASTERBOY - Feel The Heat Of The Night 2003 (Single) 2003
MASTERBOY - Feel The Heat Of The Night 2003 (Mini) 2003
MASTERBOY - The Best 2006

Страница 1 из 1

new_topic  reply_topic

Текущее время: 23-Сен 00:10
Часовой пояс: GMT + 4

m Сделано с любовью PR-CY.ru Каталог webplus.info