Вход на сайт

Имя:
Пароль:

· Забыли пароль?
logo
Портал Форум
Регистрация Вход


new_topic  reply_topic

  (Eurodance) D.J. BOBO - 1 Single, 1 Compilation 1992, 1999, FLAC tracks, lossless

pic
pic
Год выпуска: 1992
Производитель: Switzerland
Жанр: Eurodance
Лэйбл - Номер по каталогу: FRESH MUSIC – FM 1225
Продолжительность: 00:18:54

Тип издания: сингл
Аудио кодек: FLAC
Тип рипа: tracks
Битрейт аудио: lossless

Rap: Bobo (Bobo Baumann)
Lead Vocals: Emel

Sony DADC: DADC AUSTRIA
Matrix Code: FM-1225 14
Stamper Identificator: B1

Треклист:

1. Somebody Dance With Me (Radio Mix) (3:35)
2. Somebody Dance With Me (Club Mix) (5:13)
3. Uh-Uh ! (Deejay Remix) (4:25) ---> (DJ Remix) - On CD
4. Live In Switzerland (Dance-Party Live) (5:00) ---> (Dance-Party) - On CD

Доп. информация: .
pic
Год выпуска: 1999
Производитель: Germany
Жанр: Eurodance
Лэйбл - Номер по каталогу: Berger Music AG – 4241.1003-2, Berger Music AG – CD 4241.1003-2, Berger Music AG – 4241.1004-2, Berger Music AG – CD 4241.1004-2
Продолжительность: 01:53:02

Тип издания: сборник
Аудио кодек: FLAC
Тип рипа: tracks
Битрейт аудио: lossless

Rights Society: OSA
Barcode: 7 619929 326721
Barcode (CD1): 7 619929 334726
Barcode (CD2): 7 619929 334825
Matrix Code (CD1): CBM 4241.1003-2
Matrix Code (CD2): CBM 4241.1004-2

Треклист:

CD1 THE HITS

1. Intro (0:45)
2. Somebody Dance With Me (3:31)
3. Take Control (4:28)
4. Everybody (3:53)
5. Keep On Dancing (3:32)
6. I Want Your Body (4:52)
7. Uh Uh (4:23)
8. Let's Groove On (3:00)
9. Somebody Dance With Me (Italian Mix) (5:21)
10. Music (4:34)
11. Moove Your Feet (3:45)
12. Keep On Dancing (12"New Fashion Mix) (6:07)
13. Somebody Dance With Me (DMC Remix) (3:54)
14. BoBo ID "1" (0:07)
15. BoBo ID "2" (0:06)

CD2 THE REMIXES

1. Intro (Live) (0:54)
2. Music (Live) (4:21)
3. Take Control (Live) (6:07)
4. Everybody (Tribe Mix) (6:52)
5. Somebody Dance With Me (Heaven Trouble Mix) (7:25)
6. Take Control (DMC Remix) (6:16) (in booklet - 6:01)
7. Keep On Dancing (New Fashion Mix) (6:01) (in booklet - 6:07)
8. Everybody (Nasty Mix) (6:57)
9. Somebody Dance With Me (DMC Remix) (4:02)
10. Take Control (Trime'n Delgado Remix) (6:16)
11. Keep On Dancing (DMC Remix) (6:05)

Доп. информация: Сборник в картонной упаковке.

Код:

Exact Audio Copy V1.0 beta 3 from 29. August 2011

Отчёт EAC об извлечении, выполненном 21. декабря 2017, 19:05

D.J. BOBO / Somebody Dance With Me (Single) 1992

Дисковод: ASUS    DRW-2014L1T   Adapter: 4  ID: 0

Режим чтения                 : Достоверность
Использование точного потока : Да
Отключение кэша аудио        : Да
Использование указателей C2  : Нет

Коррекция смещения при чтении                     : 6
Способность читать области Lead-in и Lead-out     : Нет
Заполнение пропущенных сэмплов тишиной            : Да
Удаление блоков с тишиной в начале и конце        : Нет
При вычислениях CRC использовались нулевые сэмплы : Да
Интерфейс                                         : Встроенный Win32-интерфейс для Win NT/2000
Обработка зазоров                                 : Добавлено к предыдущему треку

Выходной формат          : Пользовательский кодировщик
Выбранный битрейт        : 1024 kBit/s
Качество                 : Высокий
Добавление ID3-тега      : Нет
Утилита сжатия           : C:\Program Files\Exact Audio Copy\FLAC\FLAC.EXE
Дополнительные параметры : -6 -V -T "ARTIST=%artist%" -T "TITLE=%title%" -T "ALBUM=%albumtitle%" -T "DATE=%year%" -T "TRACKNUMBER=%tracknr%" -T "GENRE=%genre%" -T "COMMENT=%comment%" -T "BAND=%albuminterpret%" -T "ALBUMARTIST=%albuminterpret%" -T "COMPOSER=%composer%" %haslyrics%--tag-from-file=LYRICS="%lyricsfile%"%haslyrics% -T "DISCNUMBER=%cdnumber%" -T "TOTALDISCS=%totalcds%" -T "TOTALTRACKS=%numtracks%" %hascover%--picture="%coverfile%"%hascover% %source% -o %dest%

TOC извлечённого CD

     Трек |   Старт  | Длительность | Начальный сектор | Конечный сектор
    ---------------------------------------------------------------------
       1  |  0:00.00 |    3:34.45   |           0      |      16094     
       2  |  3:34.45 |    5:17.15   |       16095      |      39884     
       3  |  8:51.60 |    4:29.45   |       39885      |      60104     
       4  | 13:21.30 |    5:33.70   |       60105      |      85149     

Трек  1

     Имя файла E:\This EAC has made Federal\D.J. BOBO - 1 - Somebody Dance With Me (Radio Mix).wav

     Длина предзазора  0:00:02.00

     Пиковый уровень 95.5 %
     Скорость извлечения 4.2 X
     Качество трека 100.0 %
     CRC теста 17CBC504
     CRC копии 17CBC504
     Точное извлечение (достоверность 4)  [3CF14789]  (AR v2)
     Копирование... OK

Трек  2

     Имя файла E:\This EAC has made Federal\D.J. BOBO - 2 - Somebody Dance With Me (Club Mix).wav

     Длина предзазора  0:00:00.20

     Пиковый уровень 83.4 %
     Скорость извлечения 4.9 X
     Качество трека 100.0 %
     CRC теста EB00E256
     CRC копии EB00E256
     Точное извлечение (достоверность 4)  [13DC7EF3]  (AR v2)
     Копирование... OK

Трек  3

     Имя файла E:\This EAC has made Federal\D.J. BOBO - 3 - Uh-Uh ! (Deejay Remix).wav

     Длина предзазора  0:00:01.28

     Пиковый уровень 85.2 %
     Скорость извлечения 3.8 X
     Качество трека 99.9 %
     CRC теста D94466DC
     CRC копии D94466DC
     Точное извлечение (достоверность 4)  [21267273]  (AR v2)
     Копирование... OK

Трек  4

     Имя файла E:\This EAC has made Federal\D.J. BOBO - 4 - Live In Switzerland (Dance-Party Live).wav

     Длина предзазора  0:00:02.10

     Пиковый уровень 71.7 %
     Скорость извлечения 5.9 X
     Качество трека 100.0 %
     CRC теста 2B46F369
     CRC копии 2B46F369
     Точное извлечение (достоверность 4)  [1914B04B]  (AR v2)
     Копирование... OK

Все треки извлечены точно

Ошибок не произошло

Конец отчёта

==== Контрольная сумма отчёта 51753D0AEC37DAA0A79B262D9D9C2F1B4295F865D33840B378429760DE72AAD8 ====

Код:

Exact Audio Copy V1.0 beta 3 from 29. August 2011

Отчёт EAC об извлечении, выполненном 1. июля 2016, 19:42

D.J. BOBO / From Gold To Platin - Hits & Remixes (2xCD) 1999

Дисковод: ASUS    DRW-2014L1T   Adapter: 2  ID: 0

Режим чтения                 : Достоверность
Использование точного потока : Да
Отключение кэша аудио        : Да
Использование указателей C2  : Нет

Коррекция смещения при чтении                     : 6
Способность читать области Lead-in и Lead-out     : Нет
Заполнение пропущенных сэмплов тишиной            : Да
Удаление блоков с тишиной в начале и конце        : Нет
При вычислениях CRC использовались нулевые сэмплы : Да
Интерфейс                                         : Встроенный Win32-интерфейс для Win NT/2000
Обработка зазоров                                 : Добавлено к предыдущему треку

Выходной формат          : Пользовательский кодировщик
Выбранный битрейт        : 1024 kBit/s
Качество                 : Высокий
Добавление ID3-тега      : Нет
Утилита сжатия           : C:\Program Files\Exact Audio Copy\FLAC\FLAC.EXE
Дополнительные параметры : -6 -V -T "ARTIST=%artist%" -T "TITLE=%title%" -T "ALBUM=%albumtitle%" -T "DATE=%year%" -T "TRACKNUMBER=%tracknr%" -T "GENRE=%genre%" -T "COMMENT=%comment%" -T "BAND=%albuminterpret%" -T "ALBUMARTIST=%albuminterpret%" -T "COMPOSER=%composer%" %haslyrics%--tag-from-file=LYRICS="%lyricsfile%"%haslyrics% -T "DISCNUMBER=%cdnumber%" -T "TOTALDISCS=%totalcds%" -T "TOTALTRACKS=%numtracks%" %hascover%--picture="%coverfile%"%hascover% %source% -o %dest%

TOC извлечённого CD

     Трек |   Старт  | Длительность | Начальный сектор | Конечный сектор
    ---------------------------------------------------------------------
       1  |  0:00.00 |    0:45.15   |           0      |       3389     
       2  |  0:45.15 |    3:33.70   |        3390      |      19434     
       3  |  4:19.10 |    4:31.00   |       19435      |      39759     
       4  |  8:50.10 |    3:53.67   |       39760      |      57301     
       5  | 12:44.02 |    3:35.23   |       57302      |      73449     
       6  | 16:19.25 |    4:54.12   |       73450      |      95511     
       7  | 21:13.37 |    4:25.70   |       95512      |     115456     
       8  | 25:39.32 |    3:03.05   |      115457      |     129186     
       9  | 28:42.37 |    5:23.45   |      129187      |     153456     
      10  | 34:06.07 |    4:37.10   |      153457      |     174241     
      11  | 38:43.17 |    3:47.68   |      174242      |     191334     
      12  | 42:31.10 |    6:09.67   |      191335      |     219076     
      13  | 48:41.02 |    3:59.05   |      219077      |     237006     
      14  | 52:40.07 |    0:11.05   |      237007      |     237836     
      15  | 52:51.12 |    0:06.33   |      237837      |     238319     

Трек  1

     Имя файла E:\This EAC has made Federal\D.J. BOBO - 1 - Intro.wav

     Длина предзазора  0:00:02.00

     Пиковый уровень 93.4 %
     Скорость извлечения 1.5 X
     Качество трека 100.0 %
     CRC теста 9C92A6B2
     CRC копии 9C92A6B2
     Точное извлечение (достоверность 8)  [2C0C1339]  (AR v2)
     Копирование... OK

Трек  2

     Имя файла E:\This EAC has made Federal\D.J. BOBO - 2 - Somebody Dance With Me.wav

     Пиковый уровень 94.1 %
     Скорость извлечения 2.4 X
     Качество трека 100.0 %
     CRC теста DFBFAFA1
     CRC копии DFBFAFA1
     Точное извлечение (достоверность 8)  [211071F7]  (AR v2)
     Копирование... OK

Трек  3

     Имя файла E:\This EAC has made Federal\D.J. BOBO - 3 - Take Control.wav

     Пиковый уровень 93.9 %
     Скорость извлечения 2.8 X
     Качество трека 100.0 %
     CRC теста 85A702ED
     CRC копии 85A702ED
     Точное извлечение (достоверность 8)  [48C0C391]  (AR v2)
     Копирование... OK

Трек  4

     Имя файла E:\This EAC has made Federal\D.J. BOBO - 4 - Everybody.wav

     Пиковый уровень 94.2 %
     Скорость извлечения 3.0 X
     Качество трека 100.0 %
     CRC теста 081328CC
     CRC копии 081328CC
     Точное извлечение (достоверность 8)  [E647821A]  (AR v2)
     Копирование... OK

Трек  5

     Имя файла E:\This EAC has made Federal\D.J. BOBO - 5 - Keep On Dancing.wav

     Пиковый уровень 93.7 %
     Скорость извлечения 3.2 X
     Качество трека 100.0 %
     CRC теста 10CD6760
     CRC копии 10CD6760
     Точное извлечение (достоверность 8)  [C85143A2]  (AR v2)
     Копирование... OK

Трек  6

     Имя файла E:\This EAC has made Federal\D.J. BOBO - 6 - I Want Your Body.wav

     Пиковый уровень 94.1 %
     Скорость извлечения 2.2 X
     Качество трека 99.9 %
     CRC теста 233DA43F
     CRC копии 233DA43F
     Точное извлечение (достоверность 8)  [3459D400]  (AR v2)
     Копирование... OK

Трек  7

     Имя файла E:\This EAC has made Federal\D.J. BOBO - 7 - Uh Uh.wav

     Пиковый уровень 94.1 %
     Скорость извлечения 2.3 X
     Качество трека 99.9 %
     CRC теста DB7F255E
     CRC копии DB7F255E
     Точное извлечение (достоверность 8)  [F13767B2]  (AR v2)
     Копирование... OK

Трек  8

     Имя файла E:\This EAC has made Federal\D.J. BOBO - 8 - Let's Groove On.wav

     Пиковый уровень 94.0 %
     Скорость извлечения 3.8 X
     Качество трека 100.0 %
     CRC теста 71876A9B
     CRC копии 71876A9B
     Точное извлечение (достоверность 8)  [FE471FE0]  (AR v2)
     Копирование... OK

Трек  9

     Имя файла E:\This EAC has made Federal\D.J. BOBO - 9 - Somebody Dance With Me (Italian Mix).wav

     Пиковый уровень 94.3 %
     Скорость извлечения 4.3 X
     Качество трека 100.0 %
     CRC теста CC155FAB
     CRC копии CC155FAB
     Точное извлечение (достоверность 8)  [F4C0433C]  (AR v2)
     Копирование... OK

Трек 10

     Имя файла E:\This EAC has made Federal\D.J. BOBO - 10 - Music.wav

     Пиковый уровень 94.0 %
     Скорость извлечения 4.5 X
     Качество трека 100.0 %
     CRC теста E426C8AD
     CRC копии E426C8AD
     Точное извлечение (достоверность 8)  [17E57326]  (AR v2)
     Копирование... OK

Трек 11

     Имя файла E:\This EAC has made Federal\D.J. BOBO - 11 - Moove Your Feet.wav

     Пиковый уровень 94.1 %
     Скорость извлечения 4.5 X
     Качество трека 100.0 %
     CRC теста A5799895
     CRC копии A5799895
     Точное извлечение (достоверность 8)  [CA1B7877]  (AR v2)
     Копирование... OK

Трек 12

     Имя файла E:\This EAC has made Federal\D.J. BOBO - 12 - Keep On Dancing (12''New Fashion Mix).wav

     Пиковый уровень 94.0 %
     Скорость извлечения 5.0 X
     Качество трека 100.0 %
     CRC теста B7B56136
     CRC копии B7B56136
     Точное извлечение (достоверность 8)  [58B2FB67]  (AR v2)
     Копирование... OK

Трек 13

     Имя файла E:\This EAC has made Federal\D.J. BOBO - 13 - Somebody Dance With Me (DMC Remix).wav

     Пиковый уровень 94.0 %
     Скорость извлечения 0.3 X
     Качество трека 100.0 %
     CRC теста 4AC5D9C1
     CRC копии 4AC5D9C1
     Точное извлечение (достоверность 8)  [CADED867]  (AR v2)
     Копирование... OK

Трек 14

     Имя файла E:\This EAC has made Federal\D.J. BOBO - 14 - BOBO ID ''1''.wav

     Пиковый уровень 92.6 %
     Скорость извлечения 1.2 X
     Качество трека 100.0 %
     CRC теста DD46BA7B
     CRC копии DD46BA7B
     Точное извлечение (достоверность 8)  [7312628D]  (AR v2)
     Копирование... OK

Трек 15

     Имя файла E:\This EAC has made Federal\D.J. BOBO - 15 - BOBO ID ''2''.wav

     Пиковый уровень 91.0 %
     Скорость извлечения 0.8 X
     Качество трека 100.0 %
     CRC теста F02A2D6D
     CRC копии F02A2D6D
     Точное извлечение (достоверность 8)  [B4A9C4B9]  (AR v2)
     Копирование... OK

Все треки извлечены точно

Ошибок не произошло

Конец отчёта

==== Контрольная сумма отчёта 53ED9A97B45B57BFB6B4B0702D2427E459699867DDAE7D1755819DDCFD9E72F9 ====

Код:

Exact Audio Copy V1.0 beta 3 from 29. August 2011

Отчёт EAC об извлечении, выполненном 1. июля 2016, 21:47

D.J. BOBO / From Gold To Platin - Hits & Remixes (2xCD) 1999

Дисковод: ASUS    DRW-2014L1T   Adapter: 2  ID: 0

Режим чтения                 : Достоверность
Использование точного потока : Да
Отключение кэша аудио        : Да
Использование указателей C2  : Нет

Коррекция смещения при чтении                     : 6
Способность читать области Lead-in и Lead-out     : Нет
Заполнение пропущенных сэмплов тишиной            : Да
Удаление блоков с тишиной в начале и конце        : Нет
При вычислениях CRC использовались нулевые сэмплы : Да
Интерфейс                                         : Встроенный Win32-интерфейс для Win NT/2000
Обработка зазоров                                 : Добавлено к предыдущему треку

Выходной формат          : Пользовательский кодировщик
Выбранный битрейт        : 1024 kBit/s
Качество                 : Высокий
Добавление ID3-тега      : Нет
Утилита сжатия           : C:\Program Files\Exact Audio Copy\FLAC\FLAC.EXE
Дополнительные параметры : -6 -V -T "ARTIST=%artist%" -T "TITLE=%title%" -T "ALBUM=%albumtitle%" -T "DATE=%year%" -T "TRACKNUMBER=%tracknr%" -T "GENRE=%genre%" -T "COMMENT=%comment%" -T "BAND=%albuminterpret%" -T "ALBUMARTIST=%albuminterpret%" -T "COMPOSER=%composer%" %haslyrics%--tag-from-file=LYRICS="%lyricsfile%"%haslyrics% -T "DISCNUMBER=%cdnumber%" -T "TOTALDISCS=%totalcds%" -T "TOTALTRACKS=%numtracks%" %hascover%--picture="%coverfile%"%hascover% %source% -o %dest%

TOC извлечённого CD

     Трек |   Старт  | Длительность | Начальный сектор | Конечный сектор
    ---------------------------------------------------------------------
       1  |  0:00.00 |    0:49.12   |           0      |       3686     
       2  |  0:49.12 |    4:20.38   |        3687      |      23224     
       3  |  5:09.50 |    6:07.12   |       23225      |      50761     
       4  | 11:16.62 |    6:54.40   |       50762      |      81851     
       5  | 18:11.27 |    7:28.35   |       81852      |     115486     
       6  | 25:39.62 |    5:56.43   |      115487      |     142229     
       7  | 31:36.30 |    6:08.02   |      142230      |     169831     
       8  | 37:44.32 |    6:00.33   |      169832      |     196864     
       9  | 43:44.65 |    3:57.62   |      196865      |     214701     
      10  | 47:42.52 |    6:22.10   |      214702      |     243361     
      11  | 54:04.62 |    6:01.63   |      243362      |     270499     

Трек  1

     Имя файла E:\This EAC has made Federal\D.J. BOBO - 1 - Intro (Live).wav

     Длина предзазора  0:00:02.00

     Пиковый уровень 79.7 %
     Скорость извлечения 3.0 X
     Качество трека 100.0 %
     CRC теста CCE9305C
     CRC копии CCE9305C
     Точное извлечение (достоверность 8)  [BE55A63F]  (AR v2)
     Копирование... OK

Трек  2

     Имя файла E:\This EAC has made Federal\D.J. BOBO - 2 - Music (Live).wav

     Пиковый уровень 94.3 %
     Скорость извлечения 5.2 X
     Качество трека 100.0 %
     CRC теста A34D72A4
     CRC копии A34D72A4
     Точное извлечение (достоверность 8)  [DBB7A2D7]  (AR v2)
     Копирование... OK

Трек  3

     Имя файла E:\This EAC has made Federal\D.J. BOBO - 3 - Take Control (Live).wav

     Пиковый уровень 98.4 %
     Скорость извлечения 4.8 X
     Качество трека 99.9 %
     CRC теста 4384D6E1
     CRC копии 4384D6E1
     Точное извлечение (достоверность 8)  [E8AF9059]  (AR v2)
     Копирование... OK

Трек  4

     Имя файла E:\This EAC has made Federal\D.J. BOBO - 4 - Everybody (Tribe Mix).wav

     Длина предзазора  0:00:03.47

     Пиковый уровень 90.4 %
     Скорость извлечения 7.0 X
     Качество трека 100.0 %
     CRC теста CF1EA1C0
     CRC копии CF1EA1C0
     Точное извлечение (достоверность 9)  [24FE4623]  (AR v2)
     Копирование... OK

Трек  5

     Имя файла E:\This EAC has made Federal\D.J. BOBO - 5 - Somebody Dance With Me (Heaven Trouble Mix).wav

     Длина предзазора  0:00:03.65

     Пиковый уровень 95.0 %
     Скорость извлечения 6.6 X
     Качество трека 100.0 %
     CRC теста 23D6D8D9
     CRC копии 23D6D8D9
     Точное извлечение (достоверность 9)  [C0631284]  (AR v2)
     Копирование... OK

Трек  6

     Имя файла E:\This EAC has made Federal\D.J. BOBO - 6 - Take Control (DMC Remix).wav

     Длина предзазора  0:00:03.27

     Пиковый уровень 96.4 %
     Скорость извлечения 5.6 X
     Качество трека 99.9 %
     CRC теста 29DFC60A
     CRC копии 29DFC60A
     Точное извлечение (достоверность 8)  [A80D89DA]  (AR v2)
     Копирование... OK

Трек  7

     Имя файла E:\This EAC has made Federal\D.J. BOBO - 7 - Keep On Dancing (New Fashion Mix).wav

     Длина предзазора  0:00:01.05

     Пиковый уровень 90.4 %
     Скорость извлечения 7.4 X
     Качество трека 100.0 %
     CRC теста 021B19B3
     CRC копии 021B19B3
     Точное извлечение (достоверность 8)  [A05EDF9C]  (AR v2)
     Копирование... OK

Трек  8

     Имя файла E:\This EAC has made Federal\D.J. BOBO - 8 - Everybody (Nasty Mix).wav

     Пиковый уровень 91.0 %
     Скорость извлечения 6.1 X
     Качество трека 100.0 %
     CRC теста 6E439669
     CRC копии 6E439669
     Точное извлечение (достоверность 8)  [2C98946D]  (AR v2)
     Копирование... OK

Трек  9

     Имя файла E:\This EAC has made Federal\D.J. BOBO - 9 - Somebody Dance With Me (DMC Remix).wav

     Длина предзазора  0:00:03.15

     Пиковый уровень 90.1 %
     Скорость извлечения 5.9 X
     Качество трека 100.0 %
     CRC теста 9594116C
     CRC копии 9594116C
     Точное извлечение (достоверность 8)  [CF3AE5CE]  (AR v2)
     Копирование... OK

Трек 10

     Имя файла E:\This EAC has made Federal\D.J. BOBO - 10 - Take Control (Trime'n Delgado Remix).wav

     Длина предзазора  0:00:03.15

     Пиковый уровень 87.4 %
     Скорость извлечения 6.2 X
     Качество трека 99.9 %
     CRC теста EE6AA9C1
     CRC копии EE6AA9C1
     Точное извлечение (достоверность 9)  [B16D9C9B]  (AR v2)
     Копирование... OK

Трек 11

     Имя файла E:\This EAC has made Federal\D.J. BOBO - 11 - Keep On Dancing (DMC Remix).wav

     Длина предзазора  0:00:04.12

     Пиковый уровень 91.6 %
     Скорость извлечения 7.0 X
     Качество трека 100.0 %
     CRC теста 88CD4DE3
     CRC копии 88CD4DE3
     Точное извлечение (достоверность 8)  [167A310B]  (AR v2)
     Копирование... OK

Все треки извлечены точно

Ошибок не произошло

Конец отчёта

==== Контрольная сумма отчёта FF6191009331DF5127D441784140A7D8B79A2C64FCB1721A4D669220063F7719 ====
Точно производство Германия? Что указывает на производителя, как можно его идентифицировать?
dimka007

Для меня, в первую очередь, показателем где чего произведено является надпись "Made in", поэтому всегда стараюсь выискать на обложке или носителе эту надпись!
Если этой надписи нет, то приходится идти на помойку, понятно, что там всё от балды, и made in там ничего общего с реальной страной производства не имеет, но что поделаешь... других вариантов я не знаю.

Что касается конкретно этого релиза:
pic
pic
Нашёл у себя коробку из-под альбома

DJ BoBo‎– Planet Colors - Танцевальный Рай ‎– LP-084-01 - Russia - 2001,

решил отсканировать внутренний вкладыш, кому интересно, можно скачать прямо здесь:


pic

pic
К сожалению при загрузке сюда было срезано разрешение, при сканировании у меня получилось первое (с информацией) - 3590х2828 (24 Мб) png и второе (только изображение) 3601х2828 (30,4 Мб) png

На 04.08.2017 этого в тырнете нет!
Добавлена информация по релизу D.J. BOBO - Somebody Dance With Me (4 Hot Dance Mixes) (Single, Promo) 1992.

Страница 1 из 1

new_topic  reply_topic

Текущее время: 27-Окт 04:26
Часовой пояс: GMT + 4

m Сделано с любовью PR-CY.ru Каталог webplus.info