Вход на сайт

Имя:
Пароль:

· Забыли пароль?
logo
Портал Форум
Регистрация Вход


new_topic  reply_topic

  (Euro Trance) II Future - Confusion (1997), WAV (tracks), lossless

pic
Год выпуска: 1997
Страна: Финляндия
Производитель: Финляндия
Жанр: Euro Trance
Номер #: Not On Label ‎– SATA - 2
Продолжительность: 00:18:24

Тип издания: сингл
Аудио кодек: WAV
Тип рипа: (tracks +.log)
Битрейт аудио: lossless
Битрейт аудио: 44.1 KHz

Треклист:

01. Life Begins
02. Confusion
03. Over The Hills
04. Remember The Times
05. Epiloquest

Доп. информация: Copyright (c) – II Future
Made By – CD-Linja OY – 17061612

Код:

Exact Audio Copy V0.99 prebeta 5 from 4. May 2009

Отчёт EAC об извлечении, выполненном 26. октября 2016, 11:52

II Future / Confusion

Дисковод: HL-DT-STDVDRAM GSA-T50N   Adapter: 2  ID: 0

Режим чтения                 : Достоверность
Использование точного потока : Да
Отключение кэша аудио        : Да
Использование указателей C2  : Нет

Коррекция смещения при чтении                     : 667
Способность читать области Lead-in и Lead-out     : Нет
Заполнение пропущенных сэмплов тишиной            : Да
Удаление блоков с тишиной в начале и конце        : Нет
При вычислениях CRC использовались нулевые сэмплы : Да
Интерфейс                                         : Встроенный Win32-интерфейс для Win NT/2000
Обработка зазоров                                 : Не обнаружено, добавлено к предыдущему треку

Выходной формат : Внутренние WAV-операции
Формат сэмплов  : 44.100 Гц; 16 бит; стерео

TOC извлечённого CD

     Трек |   Старт  | Длительность | Начальный сектор | Конечный сектор
    ---------------------------------------------------------------------
       1  |  0:00.00 |    4:30.15   |           0      |      20264     
       2  |  4:30.15 |    4:20.60   |       20265      |      39824     
       3  |  8:51.00 |    3:43.30   |       39825      |      56579     
       4  | 12:34.30 |    4:05.30   |       56580      |      74984     
       5  | 16:39.60 |    1:44.30   |       74985      |      82814     

Трек  1

     Имя файла C:\EAC\II Future - 01 - Life Begins.wav

     Пиковый уровень 100.0 %
     Качество трека 100.0 %
     CRC копии 7C227753
     Точность не определена (достоверность 1)  [088B8988], AccurateRip вернул [C2D0CC11]
     Копирование... OK

Трек  2

     Имя файла C:\EAC\II Future - 02 - Confusion.wav

     Пиковый уровень 99.9 %
     Качество трека 100.0 %
     CRC копии ED6E8FE0
     Точность не определена (достоверность 1)  [347C46F4], AccurateRip вернул [83819C7D]
     Копирование... OK

Трек  3

     Имя файла C:\EAC\II Future - 03 - Over The Hills.wav

     Пиковый уровень 99.9 %
     Качество трека 100.0 %
     CRC копии F99AA22B
     Точность не определена (достоверность 1)  [73CC0DB2], AccurateRip вернул [11F5E132]
     Копирование... OK

Трек  4

     Имя файла C:\EAC\II Future - 04 - Remember The Times.wav

     Пиковый уровень 100.0 %
     Качество трека 99.9 %
     CRC копии FB5D3FA7
     Точность не определена (достоверность 1)  [C2F5F085], AccurateRip вернул [DE68B76E]
     Копирование... OK

Трек  5

     Имя файла C:\EAC\II Future - 05 - Epiloquest.wav

     Пиковый уровень 99.9 %
     Качество трека 100.0 %
     CRC копии 6B47D173
     Точность не определена (достоверность 1)  [79BEAF07], AccurateRip вернул [A759F94F]
     Копирование... OK

Ни один трек не прошёл проверки на точность
В вашей базе может быть иной вариант штамповки диска

Ошибок не произошло

Конец отчёта

Alex2GB писал(а):

...
Кому чего, у меня этот релиз в треш-листе под номером 3871:
pic

Federal писал(а):

Alex2GB писал(а):

...
Кому чего, у меня этот релиз в треш-листе под номером 3871:
pic
хахаха зато это раре по сравнению со сраным Мастербоем ЛОЛ

Alex2GB писал(а):

Federal писал(а):

Alex2GB писал(а):

...
Кому чего, у меня этот релиз в треш-листе под номером 3871:
pic
хахаха зато это раре по сравнению со сраным Мастербоем ЛОЛ
Ты такой забавный, тебе рар, ему трешак. Мне по барабану. Доказать ты что хочешь, пытаешся на сборе раров само реализоваться?
Nice Single. Thx

Страница 1 из 1

new_topic  reply_topic

Текущее время: 16-Дек 04:43
Часовой пояс: GMT + 4

m Сделано с любовью PR-CY.ru Каталог webplus.info