Вход на сайт

Имя:
Пароль:

· Забыли пароль?
logo
Портал Форум
Регистрация Вход


new_topic  reply_topic

  (Eurodance) D.J. IGO - Far Away (Single) 1994, FLAC tracks, lossless

pic

Год выпуска: 1994
Производитель: Netherlands
Жанр: Eurodance
Лейбл - Номер по каталогу: EMI – 0 7243 8640062 8, EMI – 7243 8 64006 2 8
Продолжительность: 00:15:02

Тип издания: сингл
Аудио кодек: FLAC
Тип рипа: tracks
Битрейт аудио: lossless

Label Code: LC 8497
Barcode: 7 24386 40062 8
Rights Society: BIEM/STEMRA
Stamper Identificator: 1-1-3-NL
Matrix Code: EMI 8640062 CDM01

Треклист:

1. Far Away (90210-Radio-Mix) (3:33)
2. Far Away (Pacha-Trance-Mix) (6:17)
3. Far Away (L.A.-Extended-Mix) (5:02)

Доп. информация: .

Код:

Exact Audio Copy V1.0 beta 3 from 29. August 2011

Отчёт EAC об извлечении, выполненном 10. августа 2019, 18:08

D.J. IGO / Far Away (Single) 1994

Дисковод: ASUS    DRW-2014L1T   Adapter: 2  ID: 0

Режим чтения                 : Достоверность
Использование точного потока : Да
Отключение кэша аудио        : Да
Использование указателей C2  : Нет

Коррекция смещения при чтении                     : 6
Способность читать области Lead-in и Lead-out     : Нет
Заполнение пропущенных сэмплов тишиной            : Да
Удаление блоков с тишиной в начале и конце        : Нет
При вычислениях CRC использовались нулевые сэмплы : Да
Интерфейс                                         : Встроенный Win32-интерфейс для Win NT/2000
Обработка зазоров                                 : Добавлено к предыдущему треку

Выходной формат          : Пользовательский кодировщик
Выбранный битрейт        : 1024 kBit/s
Качество                 : Высокий
Добавление ID3-тега      : Нет
Утилита сжатия           : C:\Program Files (x86)\Exact Audio Copy\FLAC\FLAC.EXE
Дополнительные параметры : -6 -V -T "ARTIST=%artist%" -T "TITLE=%title%" -T "ALBUM=%albumtitle%" -T "DATE=%year%" -T "TRACKNUMBER=%tracknr%" -T "GENRE=%genre%" -T "COMMENT=%comment%" -T "BAND=%albuminterpret%" -T "ALBUMARTIST=%albuminterpret%" -T "COMPOSER=%composer%" %haslyrics%--tag-from-file=LYRICS="%lyricsfile%"%haslyrics% -T "DISCNUMBER=%cdnumber%" -T "TOTALDISCS=%totalcds%" -T "TOTALTRACKS=%numtracks%" %hascover%--picture="%coverfile%"%hascover% %source% -o %dest%

TOC извлечённого CD

     Трек |   Старт  | Длительность | Начальный сектор | Конечный сектор
    ---------------------------------------------------------------------
       1  |  0:00.00 |    3:38.25   |           0      |      16374     
       2  |  3:38.25 |    6:20.20   |       16375      |      44894     
       3  |  9:58.45 |    5:04.40   |       44895      |      67734     

Трек  1

     Имя файла E:\This EAC has made Federal\D.J. IGO - 1 - Far Away (90210-Radio-Mix).wav

     Длина предзазора  0:00:02.00

     Пиковый уровень 97.7 %
     Скорость извлечения 4.9 X
     Качество трека 100.0 %
     CRC теста DA2DB863
     CRC копии DA2DB863
     Точное извлечение (достоверность 2)  [6DAF0F6F]  (AR v2)
     Копирование... OK

Трек  2

     Имя файла E:\This EAC has made Federal\D.J. IGO - 2 - Far Away (Pacha-Trance-Mix).wav

     Длина предзазора  0:00:01.20

     Пиковый уровень 97.7 %
     Скорость извлечения 5.9 X
     Качество трека 100.0 %
     CRC теста 137CFC79
     CRC копии 137CFC79
     Точное извлечение (достоверность 2)  [2B63D3E7]  (AR v2)
     Копирование... OK

Трек  3

     Имя файла E:\This EAC has made Federal\D.J. IGO - 3 - Far Away (L.A.-Extended-Mix).wav

     Длина предзазора  0:00:00.63

     Пиковый уровень 97.7 %
     Скорость извлечения 6.2 X
     Качество трека 100.0 %
     CRC теста 8FF83007
     CRC копии 8FF83007
     Точное извлечение (достоверность 2)  [711B6575]  (AR v2)
     Копирование... OK

Все треки извлечены точно

Ошибок не произошло

Конец отчёта

==== Контрольная сумма отчёта EF4D41102794B265BA9320F857B3C5AD6A8E672F047DF7DCD05843ACA60A0B39 ====

Страница 1 из 1

new_topic  reply_topic

Текущее время: 27-Сен 21:45
Часовой пояс: GMT + 4

m Сделано с любовью PR-CY.ru Каталог webplus.info